<?xml version="1.0" standalone="no"?>
<!DOCTYPE svg PUBLIC "-//W3C//DTD SVG 1.1//EN" "http://www.w3.org/Graphics/SVG/1.1/DTD/svg11.dtd" >
<svg xmlns="http://www.w3.org/2000/svg" xmlns:xlink="http://www.w3.org/1999/xlink" version="1.1">
<metadata></metadata>
<defs>
<font id="untitled1regular" horiz-adv-x="218" >
<font-face units-per-em="1000" ascent="800" descent="-200" />
<missing-glyph horiz-adv-x="500" />
<glyph unicode="!" horiz-adv-x="166" d="M66 39q6 8 16 -4q10 -10 10 -34q0 -7 -3 -7q-2 0 -1 -1q2 -3 -3 -4l-9 1q-10 2 -13 7q-5 6 -4 22q0 13 3 16zM71 28q0 2 -4 -3q-2 -2 -1.5 -2.5t2.5 1.5zM69 13q-1 3 -3 3l2 -3q2 -3 3 -3q-1 0 -2 3zM82 9q-2 2 -4 2q-3 0 -2 -1t4 -1h2v0zM69 3q0 3 -2 0q-1 -1 0 -3 q1 1 2 3zM77 488q3 4 4 0q1 -2 -1 -5q-2 -4 0 -9q7 -16 8 -121q1 -106 4 -110q1 -1 1 -15q-2 -62 -3 -74q-2 -18 -2 -20q0 -5 2 -15q1 -6 0 -7.5t-7 -2.5q-8 -2 -10 2q-2 2 -2 9q0 9 1 15q2 12 2 17q4 40 4 63q0 6 -2 18t-2 102q0 89 -2 117q-1 26 2 27q4 2 3 4q-2 3 0 5z M82 358q0 4 -2 1q-1 -1 1 -3q1 -1 1 2zM86 238q2 2 -2 2t-1 -2q1 -2 3 0zM88 226q1 1 -2 1q-4 0 -1 -2q1 -1 3 1zM87 174q0 2 -4 -3q-2 -2 -1.5 -2.5t2.5 1.5z" />
<glyph unicode="&#x22;" horiz-adv-x="210" d="M68 403q2 6 5 8q1 1 3 1q4 0 6 -14q0 -10 2 -20q1 -5 1 -11l-1 -1q1 0 2 -1v-2v-4q0 -1 -0.5 -1t-0.5 -1q0 -2 3 -2q5 0 5 -8l-5 -5l-4 -2l-3 3l-1 1q-2 1 -2 2l1 1v1h-1h-1h-1q-3 0 -6 16q-1 4 -1.5 6.5t-1 4.5t-0.5 4q-2 10 -2 12l1 4zM75 398q1 0 1 2l-1 1q-1 0 -2 -1 q0 -2 2 -2zM74 379l-2 2l-2 3q0 -2 1 -3zM80 365l-1 -1q-2 -2 -3 -2l-2 2l-2 1q1 0 2 -2q2 -2 3 -2t1 0.5t1 0.5q2 2 2 3h-1zM101 420q0 4 2 8q1 3 6 3q7 0 7 -4q0 -6 1 -10v-5q0 -4 -2 -6l-2 -2l1 -1h1q2 0 2 -6v-9l1 -2q0 -1 0.5 -3.5t0.5 -4.5q3 -25 12 -28q4 -1 4 -5 q0 -3 -4 -4q-5 -2 -9 -2v1q0 1 -1 1l-2 1q-2 2 -3 4h3v-1l2 1q0 2 -2 2l-3 -1q-6 9 -7 18q0 2 -1 5q0 3 -1 4q-3 9 -3 30q0 7 -1 8q-2 4 -2 8zM112 417v1q-1 1 -3 1h-3l1 -1q1 -1 4 -1h1zM111 391l1 1q0 2 -2 2l-2 -1q1 0 2 -1zM114 368q1 0 2 1q0 1 -2 1l-3 -1q1 -1 2 -1h1 zM115 358l3 3l-1 1q-1 -1 -2 -3l-2 -2q1 0 2 1z" />
<glyph unicode="#" horiz-adv-x="304" d="M111 356q6 10 8 10v-18q0 -68 -2 -76q0 -4 12 -4q20 0 29 -1q3 0 9.5 -1t11 -1.5t6.5 -0.5h8l1 18q0 11 5 36q4 20 7 21q5 2 8 0q5 -2 1 -21q-3 -15 -3 -25q0 -9 -3 -17q-2 -9 6 -13q5 -1 9 -1q2 1 3 0q2 -1 8 -1q6 1 10 -4q4 -6 2 -8.5t-9 -1.5q-10 2 -15 2 q-3 0 -6.5 1.5t-4.5 1.5q-2 1 -3 -0.5t-2 -6t-2 -12.5q-3 -9 -3 -18q-1 -2 -1.5 -6.5t-1.5 -11t-2 -10.5q0 -5 8 -5t12 2q2 2 15.5 2t15.5 -2q5 -4 -5 -6q-6 -2 -13 -2q-12 0 -12 -1l-14 -4h-4q-4 0 -4 -1q-2 -8 -2 -28q0 -22 2 -28v-11q-2 -3 -7 -1t-7 5q-6 24 -6 56 q0 7 1 7q3 0 3 1t-6 1q-1 0 -16 3q-5 1 -15 1q-3 0 -12 3q-6 2 -11 2q-4 0 -4.5 -0.5t0.5 -3.5q1 -2 1 -13q0 -16 -3 -37q-1 -7 -2 -20.5t-2 -18.5q0 -11 -8 -6q-4 4 -4 16q0 9 1 16q0 9 0.5 28t0.5 24l2 20l-14 5q-19 6 -22 14q-4 12 16 10q11 -2 11 0q0 4 4 4q5 1 3 13 q-4 13 0 13q1 1 1.5 3.5t-1.5 5.5t-4 3q-31 1 -30 -6q0 -1 1 -3q4 -9 -4 -14q-1 0 -3 1.5t-3 1.5q-6 3 -6 15t6 17q7 5 21 5q13 0 25 -5q5 -2 5 2q0 2 -2 2h-1q-3 0 -3 34q0 33 9 49zM72 267l3 2q-1 0 -3 -1q-4 -2 -5 -1q-3 1 -3 0q0 -2 3 -2t5 2zM99 263q0 1 -3 1 q-6 0 0 -2zM191 247v10q-1 0 -1 -5h-11q-11 0 -23 0.5t-19 1t-10 0.5q-8 0 -8 -1l-1 -4q0 -4 -0.5 -11t-0.5 -14v-26l20 -6q14 -4 30 -7q9 -3 11 -2t4 7q0 8 5 28q0 5 3 11q1 2 1 18zM105 208h-11q0 -2 6 -2zM111 191l-5 4q0 -3 2 -4l5 -2q0 1 -2 2zM132 186q0 1 -3 1 q-6 0 0 -2q1 0 3 1zM143 184q0 2 -3 2q-6 0 0 -2q2 -1 3 0z" />
<glyph unicode="$" horiz-adv-x="273" d="M136 362q12 11 23 -11q5 -11 20 -15q4 -1 15 -6q4 -2 2.5 -13t-6.5 -16q-4 -4 -4 -8q2 -1 -2 -1l-2 -2l-1 -3q-4 -5 -10 -4q-7 1 -7 -4q0 -1 -1 -5t-1 -5q-4 -15 -4 -36q0 -2 -2 -11.5t-2 -15.5q0 -5 -0.5 -16.5t-0.5 -14.5t-1 -7l1 -4q2 1 10.5 -9.5t8.5 -13.5 q0 -2 4 -2q1 0 10 -11q6 -9 26 -27q14 -14 14 -28q0 -10 -8 -23q-14 -26 -38 -26q-4 0 -8 2q-8 4 -14 -3l-4 -4q2 1 4 3q5 4 8 0q7 -10 0 -10q-5 0 -13 4q-7 3 -7 9t-13 7q-13 2 -25 7l-11 6q-4 0 -21 10.5t-17 12.5t1 2q2 -1 5 0q-2 1 -5 2q-5 -1 -7 2.5t2 6.5q10 8 15 -2 q4 -7 0 -9q-2 -1 -1 -1.5t3 0.5q3 1 6 0q2 -1 3.5 -1.5t1.5 0.5t8.5 -3.5t19.5 -9.5q1 0 7 -1.5t10 -3.5l13 -5v9q0 8 -2 8q-3 0 -3 6q-2 91 -5 96l-3 3q-1 2 -3 4t-3 4l-2 2q0 4 -4 4q-1 0 -1 3l-1 2l-3 3t-3 4q-7 9 -5 10q1 1 0 3q-3 -1 -7 2.5t-4 7.5q0 3 -4 9 q-8 11 -5 15q1 0 3.5 1.5t3.5 1.5l4 4q1 0 -4 -2t-9 0.5t-3 7.5q4 27 14 37l11 15q8 13 20 20q22 15 11 27q-4 5 2 10zM176 330h-6l-1 -1q-2 -1 -1 -2t3 0zM167 323q-1 -1 -2 0l-1.5 1.5t-1.5 0.5q-2 2 -3 0q4 -2 0 -4q-1 -1 -1 -6q0 -7 -2 -8q-4 -6 5 -6q3 0 1 3q-2 1 -2 3 t1 3q2 2 2 5t-2 3t0 1l5 2q2 -1 3.5 -0.5t1.5 1.5q0 3 -4 1zM146 322q0 1 -7 1l-4 -1q2 -1 8 -1q3 0 3 1zM186 319q-4 -2 -9 0t-6.5 -0.5t-1.5 -13.5t3 -11q4 0 4 2q0 4 8 20zM141 310q-5 7 -13 -2q-1 -2 -3.5 -5.5t-4.5 -4.5q-5 -5 -5 -6q0 -4 -5 -6q-8 -5 -8 -33 q0 -22 18 -49q10 -11 10 -19q-1 -4 3 -4q5 0 8 5q1 3 0 3q-5 -3 -6 -2t3 6q1 1 2 3l1 1q-3 1 -3 56t3 55v2zM151 297l-5 4q0 -3 2 -4l5 -3q0 2 -2 3zM162 293l-3 5q-1 -2 -1 -5t3 -3q1 0 1 3zM161 286q-3 -2 -8 3q-5 3 -5.5 3t3.5 -5q7 -7 10 -2v1zM93 254q0 2 -3 2l-4 -2 l2 -1q2 -1 5 1zM151 222l-5 3q0 -2 2 -3l5 -4q0 3 -2 4zM159 142q1 2 2 3h-3l-2 -1q-4 -3 -4 -22q0 -8 2 -42q4 -22 4 -26q0 -5 1.5 -6t12.5 -1q12 0 20 4q1 0 3.5 2.5t4.5 3.5q7 2 7 8q0 7 3 8v1q-2 -1 -6 5q-5 7 -7 7l2 2q3 3 1 3h-3q-4 -1 -7 4q-1 2 -1.5 4l-1 4t-1.5 2 t-4 4t-6 6q-11 10 -9 15q0 3 -3 3q-4 0 -2 1t-1 1q-1 -1 -3 -1l-4 -2q1 2 2 3q3 4 2 4q0 1 1 3zM148 115q0 2 -4 0q-2 -1 -3 -3q-2 -3 -2 -3.5t4 1.5zM100 51q0 3 -5 3q-2 0 0 -3l3 -4q2 3 2 4zM204 44q0 1 -1 1t-3.5 -1t-4.5 -4l-5 -6l7 5zM182 36q0 4 -3 4t0 -4l3 -3v3z " />
<glyph unicode="%" horiz-adv-x="391" d="M261 143q20 4 28 4q23 0 43 -13q12 -7 12 -18q0 -31 -9 -31h-1l-12 -4q-5 -3 -6 -5q4 0 6 1q4 2 6 1v2q-1 1 -0.5 1.5t2.5 0.5q8 0 -6 -13q-19 -17 -35 -17q-8 0 -8 -2h-3q-2 0 -6 0.5t-11.5 1t-13.5 0.5q-3 0 -7.5 3.5t-8 6.5t-2.5 4q0 1 -2 0h-2q-6 0 -12.5 8t-7.5 18 q0 9 14 21q14 11 14 15q0 3 2 3q6 0 6 3q0 6 20 9zM291 138l-6 2q0 -1 2 -2l6 -4q0 3 -2 4zM261 133l4 4q-1 0 -3 -2t-3 -2q-2 -1 -10 -1l-4 -1q7 -4 16 2zM314 128q-2 -1 -10 1q-10 2 -16 2q-31 0 -31 -10q0 -2 4 -5v1q-3 3 3 3t13 -3q5 -2 5.5 -6.5t-3.5 -7.5q-1 0 -3 0.5 t-5.5 1.5t-5.5 1q-13 3 -18 -1q-8 -4 0 -4q6 0 6 -4q2 -5 -3 -4q-3 0 -7 2q-10 6 -10 -3q0 -8 8 -16q10 -10 27 -10h7q20 1 28 6.5t17 24.5q11 20 -4 26q-4 2 0 4q2 1 1 1.5t-3 -0.5zM229 105q0 1 -10 -5l-8 -7l8 5zM269 57l-4 4q0 -3 2 -4l6 -2zM93 226q1 0 4 0.5t4 0.5 q16 0 33.5 -6.5t21.5 -14.5q4 -7 4 -15q0 -14 -12 -29q-2 -2 -2 -8q0 -3 -4.5 -5.5t-7.5 -1.5l-4 -2q-2 -1 -1 -1.5t3 0.5q3 1 4 0q0 -1 -6 -8q-18 -18 -29 -18q-6 0 -16.5 3.5t-11.5 6.5q-1 0 -2 2t-2.5 4.5t-3.5 4.5q-6 9 -6 26q0 18 -2 20q-2 4 -2 6q0 11 18 24 q18 11 20 11zM108 222q-2 2 -7 -2l-3 -3l5 2zM130 206q-10 5 -20 5q-5 0 -13 -2q-30 -11 -14 -15h2q12 -1 4 -9q-2 -5 4 -11q6 -5 5 -8.5t-9 -2.5q-4 0 -4 -10q0 -16 16 -16q7 0 17 13q9 10 14 23q5 12 6 13q3 4 0.5 10.5t-8.5 9.5zM148 202l-6 4q2 -3 4 -4l6 -2zM227 260 q4 4 14 4q8 0 8 -6q0 -4 -4 -12q-1 -2 -5 -7.5t-5 -7.5t-2.5 -4t-2.5 -4l-1 -2l-1 -1q-1 -1 -3 -2.5t-4 -3.5q-8 -8 -8 -9q0 -3 -10 -23.5t-13 -21.5q-6 -3 -6 -7q0 -6 -4 -8q-8 -8 -18 -42q0 -1 -4 -3q-2 -1 -2 -7q0 -5 -6 -5t-4 -5q2 -3 -4 -9q-4 -4 -8 -17q-4 -12 -4 -14 q0 -1 -1 -3l-1 -2q0 -3 -4 -3q-10 0 0 -6q6 -4 -2 -5q-4 -1 -12 -1q-3 1 -5 8.5t1 9.5q5 2 20 40q6 12 8 14q1 2 3 5q1 1 1 2q0 2 8 12q6 8 6 14q0 3 4 5q5 3 2 4q-2 1 2 8q5 8 20 36t18 36q0 1 4 13q5 15 15 21q2 1 10 9zM124 47q0 4 -6 -2l-3 -3l5 2z" />
<glyph unicode="&#x26;" horiz-adv-x="277" d="M92 309q2 1 7 1q18 0 27 -9q2 -2 3 -2q2 0 7 -5l5 -5q-2 0 8 -10q16 -17 16 -19q0 -1 2 -3q4 -2 2 -8q0 -2 -0.5 -5.5t-0.5 -4.5q0 -5 -3 -8t-3 -6q0 -6 -21 -13l-7 -3.5t-6 -2.5q-9 -3 -11 -3q-11 0 -2 -9q5 -4 3 -6v-1q2 1 6.5 -1t5.5 -5q2 -2 4 -2t2 -2q0 -3 7 -6 q7 -5 6 -6v-1l7 -4q6 -4 7 -4q3 -1 9.5 -5.5t5.5 -5.5l1 -1q3 3 3 4q0 6 2 9q1 2 0 3t-1 12q0 3 -0.5 5.5t-0.5 4.5v2q-1 5 0 7t4 1h4q0 3 1 4q3 3 4 -1l-1 -4q-1 -2 -1 -6q3 -17 3 -30q0 -8 -2 -16q-2 -5 0 -5t5 -3t11 -5q5 -1 8 -4q1 -1 5 -1q5 0 8.5 -6.5t-0.5 -10.5 q-1 -1 -4 -0.5t-5.5 2.5t-1.5 3v1h-1q-4 0 -15 5.5t-12 8.5q-1 4 -5 -3l-2 -6q-7 -19 -19 -17q-13 2 -18 7q-2 2 -3 2q-5 0 -15 7q-7 5 -8 4v1l1 2q0 1 1 2q-6 -4 -12 2q-4 3 -14 8q-12 5 -16 9q-12 12 -12 25q0 3 -2 7q-1 2 1 9q1 5 0 5q-2 -1 -2 1l1 4q2 13 8 13q3 0 6 3 l1 1q2 1 0 2q-1 1 -2 1q-3 1 -3 5l-1 2q-1 -1 -3.5 2t-4.5 7.5t-1 5.5t0.5 1.5t-1.5 -0.5q-2 -1 -4.5 1.5t-4.5 8t-3 11.5q-1 7 3 14q2 4 6 8q1 1 7 12q1 2 3 2q3 0 3 1q0 7 4 7q2 0 5 3q4 4 6 5zM98 304q0 1 -2 1q-5 0 -1 -2q1 -1 3 1zM92 304q0 2 -3 -3zM110 299q2 2 0 2 l-2 -2q-1 -1 -6 -1q-7 0 -15 -8q-4 -4 -7 -4l-2 -4q-1 -1 -3 -4t-3 -4q-4 -6 -4 -7v-3q-1 -3 -1 -4q0 -5 -1 -6q-2 -2 1 -2q1 0 3 -3q10 -16 20 -26q8 -7 7 -8t0 -2t2 -1q3 0 3 1t1 1q4 -2 23 4q18 6 24 12h1q2 0 2 2q2 17 0 21q-4 6 -2 8h-1q-1 -1 -6 5q-6 8 -7 9 q-2 4 -1 5q1 -1 3 1v1q-1 -1 -4 1q-1 1 -2 1t0 -2q-2 0 -5 4l-5 5l-2 1q-2 2 -8 5q-3 1 -3 2zM127 295q0 5 -2 1q-1 -1 1 -3q1 0 1 2zM137 288q-1 -1 -4 1q3 -3 5 -1q0 1 -1 0zM152 268q0 2 -2 2q-4 0 0 -2q1 -1 2 0zM63 266q0 2 -3 -2q-1 -2 -2 -2l2 1zM158 261h-3l-1 -1 q-1 -1 0 -1.5t2 0.5zM165 252q0 2 -3 2q-1 0 0 -2l2 -2q1 1 1 2zM149 221q0 1 -2 1q-5 0 -1 -2q1 -1 3 1zM111 208h-3l-1 -1h1zM104 207q-1 0 -4 -2q-2 -3 1 -1zM89 205q-1 0 -4 -2q-2 -3 1 -1zM109 203q-1 0 -4 -2q-2 -3 1 -1zM81 198h-2q-3 0 -3 -1h4zM98 197l-4 1 q-4 0 -6 -1q-8 -3 -8 -14q0 -16 7 -29q5 -9 13 -11q8 -3 8 -5q0 -1 1 -1q1 1 10 -4t9 -7q0 -3 2 -1q3 1 22 -10q3 -2 11 -2q5 0 9 6l5 7q1 2 0 6q-4 0 -10 6q-7 7 -10 7q-4 0 -2 2q-1 1 -1 2q-2 -1 -6.5 2.5t-3.5 5.5q1 1 0 1t-5 1.5t-7 4t-3 3.5q1 1 -1 1q-1 -1 -5 2t-4 5 t-1 2q-1 -1 -7.5 5.5t-5.5 8.5q1 1 0.5 1.5t-1.5 -0.5q-2 -1 -4.5 1.5t-1.5 3.5zM111 189q0 1 -1 1q-5 0 -1 -2q1 0 2 1zM190 180q0 1 -2 1l-1 -1q1 -2 3 0zM190 173q0 2 -2 2q-5 0 -1 -2q1 -1 3 0zM77 173q-1 0 -4 -2q-2 -3 1 -1zM130 171q-2 2 -3 2q-3 0 -2 -1t4 -1h1z M145 166q-1 0 -4 -2q-2 -3 1 -1zM191 161q0 2 -1 2q-5 0 -1 -2q1 -1 2 0zM167 149h-3l-1 -1l1 -1zM88 145l-4 3q0 -1 2 -3l4 -4q0 2 -2 4zM172 146l-3 2q0 -1 1 -2l3 -3q0 2 -1 3zM188 146q0 2 -2 2q-5 0 -1 -2q1 -2 3 0zM190 139q0 2 -2 2q-5 0 -1 -2q1 -1 3 0zM105 137h-2 q-3 0 -3 -1h4zM185 127q0 3 -3 -2l-2 -2q-2 -1 2 1zM214 119q0 1 -3 -3zM177 113q-1 0 -4 -2q-2 -3 1 -1zM226 112l-3 2q0 -1 1 -2l3 -3q0 2 -1 3zM166 105q0 5 -2 1q-1 -1 1 -3q1 0 1 2z" />
<glyph unicode="'" horiz-adv-x="165" d="M69 402q8 4 8 -1l3 -15q0 -3 2 -13l4 -16q3 -8 1 -10t-8 1q-9 6 -11 18q0 4 -2 8q-1 2 -1 12q0 2 0.5 6t0.5 5q0 3 3 5zM74 388q-1 0 -4 -2q-2 -3 1 -1zM75 382v2q-2 -1 -3 -2q-2 -3 1 -3q2 0 2 3zM78 372q0 1 -2 1q-4 0 0 -2q0 -1 2 1zM80 365q-1 -1 -4 1l-1 -1 q4 -4 6 0q0 1 -1 0zM81 353l-3 2q0 -1 1 -2l3 -3q0 2 -1 3z" />
<glyph unicode="(" horiz-adv-x="294" d="M79 432q12 24 19 5q4 -13 -2 -12q-2 0 -3 1t-1 0q0 -4 -2 -8q-3 -7 -6 -2q-2 3 -3 3t1 -3q3 -4 0 -16q-8 -32 -8 -68q0 -19 -3 -22q-3 -2 0 -5t3 -14q0 -7 5 -29t5 -23q0 -12 1 -13q2 -2 2 -7q0 -6 4.5 -22t6.5 -19q2 -2 2 -9q-2 -2 3 -5q4 -1 8.5 -12.5t2.5 -14.5 q-2 -1 -1 -2t2 0q4 4 10 -7q9 -12 3 -12q-1 0 -3 1q-1 1 -2 0t0 -2q4 -4 7 -1q3 2 17 -13q23 -27 53 -27h7q15 0 30 6q7 4 10 -2q5 -9 0 -9h-5q-4 0 -9 -7q-6 -6 -32 -6q-22 0 -32 8q-3 2 -7 4t-5 3l-7 5q0 3 -6 5q-7 4 -19.5 17t-12.5 17t2 2q4 0 6 4t2 3.5t-2 -1.5 q-7 -4 -11.5 -2t-10.5 12q-16 26 -22 59q0 5 -2 7q-6 12 -6 31q0 7 -2 9q-1 2 -6 37q0 10 -3 13q-2 4 -2 25q0 42 3 55q11 45 13 47q1 0 8 16zM71 378q0 8 -3 2q-2 -2 1 -5q2 0 2 3zM68 346q1 2 1 3l-6 -3q-6 -4 0 -4q1 0 5 4zM74 253q0 3 -4 1q-1 -1 -2 -3l-1 -1q1 -1 4 1z M81 219q2 2 -2 2q-3 -1 -3 -2h5zM82 208l-5 4l4 -4l3 -5q0 3 -2 5zM115 460q4 5 7.5 3t3.5 -10q0 -9 -6 -9q-1 0 -11 -7q-6 -4 -8 -2t2 8q6 4 3 7q-2 5 1 5t8 5z" />
<glyph unicode=")" horiz-adv-x="276" d="M51 467q17 9 26 1q2 -2 9 -2q11 0 33 -24l17 -17l7 -7l2 -5q2 -2 2 -5t9 -10q11 -7 2 -12q-10 -6 0 -3q7 1 12 -4.5t3 -13.5q-3 -6 0 -6t8 -5.5t6 -11.5q0 -4 4 -10t4 -10q0 -2 9 -20q3 -7 9 -33q1 -12 1 -47q0 -32 -1 -36q-1 -2 -2.5 -7t-2.5 -7q-7 -16 -8 -16v-1 q3 -4 0 -9q-4 -6 0 -6q1 0 -2 -3q-5 -5 -5 -9t-6 -4q-3 0 -7 -4q1 1 3 1q1 0 1 -2q0 -15 -32 -45q-18 -16 -18 -20q0 -2 -14 -10.5t-17 -8.5q-2 0 -3.5 1.5t-0.5 4t4 3.5q8 4 27 26q11 10 13 8q1 -2 1 -1t-1 3q-2 2 1 9t7.5 13t6.5 5h2v1q-1 1 7 22q15 37 15 38q4 18 9 23 q2 2 2 20q0 39 -6 61q-3 15 -9 24q-4 4 -7 12q-4 12 -4 18t4 10q6 4 1 5q-2 0 -3 -1q-6 -3 -9 2q-6 6 -11.5 19.5t-5.5 19.5v2q1 3 0 3h-1q-4 0 -12.5 11.5t-8.5 14.5v1q1 1 0 1t-2 -1q-3 -2 -4.5 0.5t-0.5 6.5q0 2 -4 2t-4 2q0 1 -1.5 2l-3 2t-2.5 2l-4 4q0 3 -3 3 q-6 0 -13 1v-1l2 -1q4 -4 0 -4q-2 0 -2 -4q0 -6 -9 -6q-6 0 -21 14q-10 11 -9.5 17.5t11.5 13.5zM60 449q0 3 -3 3q-8 0 -2 -3q3 -3 5 0zM112 432q0 2 -4 2q-6 0 0 -3q2 -1 4 1zM160 374q-2 2 -4 2t0 -2l-2 -4q-3 -2 -3 -3t5 1q7 3 4 6zM204 286q-1 3 -9 -4l-2 -3q1 0 5 2z M204 266q0 3 -2 3q-8 0 -2 -3q2 -2 4 0zM206 246q1 1 -2 4t-6 0q-2 -2 2 -5q2 -3 6 1zM162 92q0 3 -6 -3l-2 -2q1 1 2 1zM123 426q-5 4 -7 0v-1q2 3 7 1zM125 425l5 -1q-3 1 -5 1z" />
<glyph unicode="*" horiz-adv-x="223" d="M74 363q1 4 12 -7q10 -10 14 -12q3 -2 2 -3q-2 -2 0 -2q3 0 1 -2l2 1q3 3 3 5q0 4 6 10l7 8q1 1 7.5 -1t8.5 -3q4 -2 4 -8t-5 -6t-5 1t-3 -2q-2 -2 -5 -2q-1 0 -1 -3q0 -2 -4 -8q-5 -8 -2 -9q2 0 4 -4q3 -4 8 -3t12.5 -1.5t8.5 -4.5q1 -3 -0.5 -4t-8.5 -1t-8 -1t2 -5 q2 -4 2 -6q0 -1 10 -11q17 -20 3 -18q-5 0 -3 3q2 2 -1 2q-4 0 -13 15q-4 6 -7 9q-2 2 -5 8q-1 4 -20 1q-2 0 -7 -11q-5 -10 -8 -10q-2 0 -1 -1t-5 -12q-5 -12 -10 -12q-6 -1 -2 6q0 1 1 2q2 2 5 8q0 1 1.5 3.5t3 6.5t2.5 7l6 14q0 2 -19 2q-9 0 -10 3q-3 9 15 9q10 0 16 -2 t6 0q0 10 4 10t-4 8q-4 4 -2 6t0 2t-2 -1v-1q-1 0 -5 4q-3 4 -2 5v0h-2q-4 -1 -4 3q0 3 2 5h-1q-3 -3 -7 -1q-5 3 -1 6q2 1 4 5zM80 307q0 1 -2 1q-4 0 -4 -1l5 -1zM139 306q-2 2 -4 2t-1 -1t3 -1h2v0zM95 298q0 1 -2 1l-1 -1q2 -2 3 0z" />
<glyph unicode="+" horiz-adv-x="220" d="M92 405q3 2 7.5 2t5.5 -2q4 -8 4 -36q0 -11 2 -13.5t10 -0.5q24 3 34 3q7 0 8 -1q0 -2 16 -6q17 -6 17 -7q1 -2 -2 -2.5t-7.5 -0.5t-9.5 2q-4 2 -14 2q-13 0 -34 -4l-14 -3v-9q0 -27 6 -49q0 -2 1 -5t1.5 -5.5t0.5 -3.5q1 -9 6 -20t7 -11q6 0 4 -9q-2 -5 -8 -4.5t-11 5.5 l-6 8q0 1 -1 3q-1 1 -1.5 3t-1 5t-0.5 4q-3 6 -3 13q-5 28 -5 34q0 5 2 9v2q-2 -1 -3 3t-3 17l-1 11l-13 -1q-7 -1 -34 -1q-16 0 -19.5 2t-1.5 9q1 4 2 6t3 3t4 0.5t7 -1.5q6 -1 21 -1h21q8 0 8 2q-5 15 -5 25q0 7 -2 15q-1 7 2 8zM50 350l-5 -1l-1 -2q-3 -4 1 -1zM60 347 q0 1 -3 1q-5 0 -5 -2l2 -1q4 0 6 2zM110 346q0 3 -5 -4q-1 -2 -2 -3q1 2 3 3zM128 236l-4 2q0 -1 1 -2l4 -4q0 3 -1 4z" />
<glyph unicode="," horiz-adv-x="195" d="M114 45q9 8 9 0q0 -6 -5 -16l-4.5 -9t-3 -4.5t-2.5 -1.5t-2 1l-2 1l1 -2q2 -2 -2 -11q-8 -16 -11 -19q-2 -4 -2 -5q0 -2 -2 -2q-3 0 -3 -3t-3.5 -11t-4.5 -8t-3 -5q-1 -3 -4 -5.5t-4 -1.5q0 8 17 44q5 10 13 28q2 5 4 9t3.5 6t2.5 1t1 0q-2 5 7 14zM111 27q1 2 1 3 q0 2 -4 -3q-3 -3 -1 -5q1 -1 3 1t0 2v1zM97 0l-3 3q1 -2 2 -3l2 -2q0 1 -1 2z" />
<glyph unicode="-" d="M67 222q4 2 6 1q4 -2 6 -2t44 -3q29 -2 29 -13q0 -4 -5 -1q-6 3 -28 3q-19 0 -25 -2q-5 -1 -7 0q-2 2 -3 -2q-1 -6 -5 -4q-2 0 -2 2q-1 1 1 4v1q-4 -2 -6 0q-5 3 0 8q3 3 -1 1q-5 -2 -6.5 1t2.5 6zM94 213q0 2 -2 2q-5 0 -1 -2q1 -1 3 0zM80 211q1 1 -1 1l-1 1l-1 -1 q2 -2 3 -1z" />
<glyph unicode="." horiz-adv-x="173" d="M80 26q7 6 9 4q1 -1 5 -1q7 0 5 -14q-1 -7 -8 -11q-4 -2 -11.5 1.5t-8.5 7.5q-1 6 9 13zM85 20q1 1 0 1l-7 -3q-1 -2 -2 -3q1 2 3 3q3 3 4 2t2 0zM94 20q0 5 -2 1q-1 -1 1 -3q1 0 1 2zM90 18l-1 1q-1 0 -2 -1q0 -2 2 -2q1 0 1 2zM83 11l-3 3q0 -2 1 -3l3 -2q0 1 -1 2z M94 11q-1 1 -2 1q-4 0 -5 -3q-1 -1 -1 -2t2 1t4 2z" />
<glyph unicode="/" horiz-adv-x="220" d="M120 223q3 3 3 1q1 -2 -1 -6t-4 -3q-2 0 0 -2t-2 -7q-4 -6 -4 -7q-1 -4 -3 -8t-3 -3t-1.5 0.5t0.5 -1.5q1 -4 -2 -6q-2 2 -2 -1q0 -1 -1 -1t-1 -4q0 -6 -1 -7t-6 -13l-5 -7q-3 2 -1 -1q3 -3 1 -5q-1 -1 -3 -9q-1 -5 -5 -9q-3 -3 -3 -6t-1 -5q-8 -19 -7 -22t-4 -5 q-1 -2 -1 -5q0 -7 -3 -3q-2 2 -3 1q-2 -1 -2 2q-1 4 1 10l6 15q1 2 4 9t4 9q6 15 7 17q4 8 4 11q0 2 2 2q1 3 2 5q0 4 4 10l3 6l4 8q4 8 4 10q0 1 3 6l3 4q-1 0 1 4q3 6 3 8q3 7 6 7q2 -2 4 1zM107 193l-1 2l-2 -2q0 -1 2 -1q1 0 1 1zM152 313q4 2 7 0q3 -1 3 -5 q-11 -37 -15 -37h-1q-2 0 -1 -1t-3.5 -10t-6.5 -11q-1 -1 -1 -2q0 -2 -4 -12q-2 -6 -4 -8t-4 -1q-3 0 -3 -1q1 -1 -1 -2t-2.5 1.5t0.5 4.5q2 3 6 13q1 3 7 18q1 2 2 4.5t2 4t1 2.5q0 5 5 15q5 9 6 10l2 -1q-3 3 0 5q2 2 2 6q0 6 3 7zM157 306q0 2 -3 -2q-1 -2 -2 -2l2 1z M148 289q1 1 -1 1h-3t0 -1h4zM135 257q0 3 -3 -2q-1 -2 -2 -2q-2 -1 2 1z" />
<glyph unicode="0" horiz-adv-x="368" d="M177 28q0 1 -1.5 1t-3.5 -0.5t-3 -1.5q-1 -2 1 -2l2 1zM162 36q-2 2 -3 2t-3 -2q-3 -3 3 -3t3 3zM238 42q0 5 -3 1q-2 -2 1 -3q1 -1 1.5 -0.5t0.5 2.5zM147 45q-1 3 -8 -2q-1 -2 1 -2l2 1q5 2 5 3zM257 61q-2 2 -3 2t-3 -2q-3 -3 3 -3t3 3zM271 82q9 9 8 9q-3 0 -12 -9 l-8 -8q4 0 12 8zM89 122q-2 2 -3 2l-2 -2q-1 -1 -0.5 -2t2.5 -1q6 0 3 3zM293 149q-1 1 -3 2q-8 0 -1 -3q2 -1 4 1zM75 220q4 4 2 4q-1 0 -5 -4t0 -6h2q-2 2 1 6zM134 264q-2 2 -7 -3l1 -1q1 1 3 2q3 1 3 2zM274 282q1 1 -0.5 1.5t-3.5 0.5q-8 0 -1 -3q3 -1 5 1zM240 301 q2 2 -24 2t-36 -7q-12 -8 -15 -8q-4 0 -6 -6q-2 -5 -7 -5q-4 0 -4 -3q2 -8 -5 -8q-4 0 -4 -8q0 -7 -4 -9q-6 -3 -6 -27q0 -10 2 -12q4 -5 -3 -8q-13 -6 -13 1l1 3q2 4 -3 7q-6 4 -4 9q2 6 2 8t3 1t5 1q1 1 -1 2q-5 0 -14 -3t-11 -3q-7 0 -7 -3q0 -2 -4 -14q-5 -12 -5 -22 q0 -16 11 -44q17 -48 38 -67q7 -6 14 -17q5 -9 8 -9q4 0 10 -6l7 -6q6 -1 12 -3q12 -5 21 -2q3 1 10.5 2.5t8.5 1.5q8 2 8 4q-1 2 8 10.5t11 7.5v3q-2 4 1 4q4 0 24 41q1 3 8 30q1 5 4 18t4 16q4 12 2 25q-1 4 -2 13.5t-1 13.5q-2 15 -5 20q-5 7 -2 7q0 8 -23 37 q-2 2 -2.5 4.5t0.5 3.5q2 2 -1 2q-11 -1 -11 2zM180 302q0 2 -4 5q-5 3 -7 0v-2q1 1 3.5 0.5t3.5 -1.5q4 -4 4 -2zM235 315q0 5 -4 0q-1 -3 -5 -1q-2 1 -4 -1l4 -2h2q7 0 7 4zM212 317q0 6 -4 1q-2 -2 1 -4q1 -1 2 0.5t1 2.5zM171 319q15 9 28 9h6q23 -2 25 -3q7 -1 13 -7 t4 -9q-1 -2 1 -1t5 -0.5t4 -3.5t-1 -4q-1 -1 1 -1q12 2 11 -2q-1 -1 8 -8t9 -11q0 -1 8 -19q10 -23 11 -29q2 -16 2 -29q0 -37 -6 -58q-3 -11 -4 -20q-2 -13 -6 -21q-5 -10 -5 -11q0 -4 -12 -22t-20 -27q-8 -8 -13 -8q-6 0 -6 -4t-9 -8q-13 -5 -41 -5q-10 0 -12 2t-9 2 q-8 0 -26 15t-18 21l1 1h-4q-5 -2 -5 3q0 3 -6 9q-18 16 -12 24q1 2 -1 1q-4 -2 -6 3l-10 20q-9 18 -9 27q0 10 -3 11h-1q-6 0 -6 30q0 35 7 38q4 2 9 10q4 6 5 5q0 -6 5 -3q2 2 3 5q1 5 12 5q8 0 8 -3q-1 -2 2 -4t5 2q1 2 6 0l1 1l-2 2q-3 3 -3 7q0 7 14 27q18 27 42 41z " />
<glyph unicode="1" horiz-adv-x="224" d="M136 40l-4 5q-3 0 2 -5q4 -4 6 -4zM136 62v4q-4 -2 -6 -4q-3 -5 2 -5q4 0 4 5zM136 107q-1 3 -2 3l-2 -10q4 2 4 7zM140 161q0 4 -6 -4q-3 -4 -3 -4.5t3 2.5q6 3 6 6zM140 248l2 4l-6 -6q-4 -5 0 -5l2 2q0 3 2 5zM140 275q-4 4 -6 4q0 -2 2 -4l6 -5q3 0 -2 5zM64 288 q4 2 0 4q-4 1 -4 0q0 -3 -2 -5q-2 -4 0 -6q1 1 2 1q0 4 4 6zM78 314q0 1 -1.5 1t-3.5 -1t-3 -2q-2 -2 1 -2q1 1 3 1q4 2 4 3zM140 326q0 4 -6 -4v-1q6 3 6 5zM82 331l-2 2q-2 0 -4 -2q0 -3 4 -3q2 1 2 3zM140 341l-2 4l-4 -4q-5 -4 0 -4q6 0 6 4zM136 380l-4 5q-3 0 2 -5 t6 -5q-2 3 -4 5zM136 392l-4 5q-3 0 2 -5q4 -4 6 -4zM108 393q0 2 -2 3q-7 0 -2 -4q4 -2 4 1zM130 413q-3 2 -9.5 2.5t-8.5 -0.5q0 -2 8 -2h10zM136 431q0 5 -6 -3q-3 -4 -2.5 -4.5t4.5 2.5q4 4 4 5zM122 428q0 4 -4 4q-5 0 0 -4l4 -4v4zM132 444q0 3 -4 3q-8 0 0 -4 q2 -1 4 1zM124 454q8 3 11 3q10 0 11 -43q0 -12 0.5 -52t0.5 -65q0 -141 -3 -170q-2 -40 -2 -48v-28q0 -15 10 -24l10 -9l-6 -5q-7 -5 -12 -5q-17 0 -22 42q-3 24 -3 31t3 16q5 25 5 112q0 11 -1 15v99q0 82 -4 82q-5 0 0 -5q2 -4 1 -4t-3 1q-4 1 -4 0v-1q0 -16 -18 -48 q-4 -6 -4 -11q0 -6 -2 -8q-3 -3 -10 -21q-19 -43 -27 -43q-1 0 -5 2q-4 3 -4 14t4 15q3 4 22.5 46t19.5 46q0 7 8 20q10 21 12 31q3 12 12 15z" />
<glyph unicode="2" horiz-adv-x="389" d="M120 17q1 1 -0.5 2t-2.5 1q-6 0 -1 -4q3 -1 4 1zM264 22q0 6 -7 -3q-3 -4 -2.5 -4.5t4.5 2.5q5 3 5 5zM141 19l2 5q-3 0 -4 -3q-2 -4 -5 -2q-3 1 -3 0q0 -3 4 -3t6 3zM101 18q-4 4 -8 4h-3h-1q2 -2 4 -2q5 0 8 -3v1zM247 23q-2 -2 -7 1q-4 3 -1 -1q6 -7 9 -2q1 1 1 2 q0 2 -2 0zM164 22q0 4 -4 4q-5 0 -1 -4l5 -4v4zM86 57q1 1 -0.5 2t-2.5 1q-6 0 -1 -4q3 -1 4 1zM153 408l2 5q-3 0 -4 -3q-2 -3 -4 -2q-3 2 -3 1q0 -3 3.5 -3.5t5.5 2.5zM130 416q-1 1 -3 2q-6 0 -2 -3q4 -2 5 1zM102 428q4 3 11 3q6 0 28 -8q21 -8 38 -25q25 -26 25 -37v-2 q-2 -5 2 -9t2 -9q-2 -3 0 -14v-5q0 -29 -13 -66q-15 -44 -24 -50q-3 -2 -3 -8q0 -5 -6 -11t-6 -12q0 -9 -26 -57.5t-31 -48.5q-1 1 -1 0v-3q0 -3 -12 -17q-14 -16 -10 -17h6q6 1 22 1q12 0 17 -1q9 -2 28 2t20 3l49 -2q47 -2 49 -4q1 -1 21 -3q21 -2 25 -4q10 -5 15 -5 q7 0 15 -8q7 -7 3 -9h-2q-1 -1 -2 -1q-18 0 -31 11q-4 3 -4 0q0 -2 -17 -2h-16q-36 2 -55 2q-23 0 -24 3q-1 2 -6 0q-13 -8 -84 -8q-20 0 -40 2q-10 2 -13 2q-2 0 -8 8q-10 16 9 21q7 2 7 5t13 16q15 15 18 21q4 6 9 2q4 -3 1 1t8 27q5 9 9 15t5 5q2 -1 1 1v1q0 8 15 36 q29 57 31 72q1 5 5 13q4 6 7 25q0 1 1 5.5t2 7.5q2 14 2 29q0 29 -4 36q-4 6 -5 15q0 1 -1 2t-2 0q-2 -1 -10 8t-7 12q0 2 -2 1q-2 -2 -14 4q-18 6 -30 6q-9 0 -9 -3v-1q1 -3 -3 -9q-3 -5 -5 -25q-1 -21 -8 -21q-5 0 -6 22v5q0 42 21 54z" />
<glyph unicode="3" horiz-adv-x="323" d="M121 21q0 4 -8 -4q-4 -5 1 -1q7 4 7 5zM104 19q-1 1 -3 2l-5 -1l3 -2q4 -2 5 1zM194 47l2 5q-2 0 -4 -3q-1 -3 -5 -1q-3 2 -3 0q0 -3 3.5 -3.5t6.5 2.5zM216 60q-2 -2 -7 2q-4 2 -4 1.5t3 -3.5q3 -4 7 -4t4 4q0 1 -1 1t-2 -1zM232 75q0 6 -4 1q-1 -3 1 -4q1 -1 2 0t1 3z M252 139q-2 3 -4 3t-3 -3q1 -1 3 -2q3 1 4 2zM118 204q3 3 -3 3q-9 0 -2 -4q4 -2 5 1zM157 267q-1 2 -4 3q-8 0 -1 -4q4 -2 5 1zM170 341q-5 5 -6 5l2 -5q4 -4 6 -4t-2 4zM68 347q0 4 -9 -5l-7 -7l8 6zM76 391q7 4 21 4q6 0 20 -2q24 -5 38 -19q4 -4 9 -4q6 0 21.5 -14 t17.5 -21v-4q0 -20 -16 -38q-9 -9 -11 -13q-5 -9 -27.5 -33t-25.5 -24q-1 0 -4 -1h-3q-3 0 -7 -4t-2 -4q1 0 3 1q10 5 19 -4q5 -5 15 -9q8 -3 6 -7q-1 -2 1 -1h1q6 0 25.5 -8t23.5 -12q5 -5 9 -5q5 0 9 -4q8 -5 25 -13q21 -10 26 -16q15 -19 5 -29q-5 -5 -3 -8t-2.5 -7 t-7.5 -2l-1 1l1 -2q2 -3 -2.5 -8t-8.5 -4q-3 1 -3 -3q0 -5 -4 -5q-3 0 -2 -2v-2q0 -4 -30 -19q-18 -9 -22 -7q-1 -1 -2 -1q2 -2 -1 -2q-1 0 -15 -8q-14 -7 -19 -3q-4 3 -4.5 3t2.5 -3q5 -5 1 -7q-3 -2 -3 0h-1q-1 0 -3.5 -1t-4.5 -2q-8 -5 -12 -1q-3 1 -3 0q3 -5 -6 -6 q-4 -1 -8 1q-12 4 -20 5q-32 4 -39 17q-10 19 3 17q8 -2 12 -2q5 0 3 -5q0 -3 1 -3q4 2 6 -1q2 -4 7 -2q4 2 7 -1q2 -2 16 -4t30 5q18 8 21 8q5 0 5 3t9 7q5 2 22 14q12 9 15 7t2 1q-1 0 -1 1q0 3 33 23l1 2q1 2 2.5 6t3.5 7q4 14 2 14q-4 -1 -14.5 3t-13.5 8q-2 2 -1 2 t3 -1t3 -1t-1 2q-2 4 -6 2q-3 -2 -15 6q-9 6 -30 14.5t-25 8.5q-2 0 -9 7t-12 6h-1q-6 0 -31 22q-5 5 -4 15t7 10q5 0 11 8q17 22 25 22q3 0 2 2q-1 0 -1 1q0 5 15 24t19 19h1l1 1q-3 3 2 8q9 9 -11 21q-3 1 -5 3t-3.5 3t-0.5 2q2 2 -4 4q-5 2 0 7l3 4l-5 -3q-6 -5 -13 1 t-5 8q0 4 -27 4q-2 0 -5.5 -0.5t-4.5 -0.5q-16 -2 -20 -20q-2 -10 -5 -12t-3 -8q0 -5 -4 -9.5t-9 -4.5t-5 5t-3 8q-2 2 -2 6q0 23 13 40q7 10 18 16z" />
<glyph unicode="4" horiz-adv-x="399" d="M183 58q0 8 -4 1q-2 -4 1 -5q1 -1 2 0.5t1 3.5zM188 164q0 3 -10 -7l-7 -7l9 6q8 6 8 8zM164 188q-2 3 -4 3t0 -2q2 -3 -2 -7q-4 -5 1 -1q6 5 5 7zM234 193q0 9 -4 2q-2 -4 1 -5q3 -2 3 3zM69 194q1 1 -0.5 2t-3.5 1q-8 0 -1 -4q4 -2 5 1zM251 197q-2 -2 -8 2q-7 6 -1 -2 q7 -7 10 -2l1 2q0 2 -2 0zM323 213q0 6 -8 -4q-5 -5 1 -1q2 1 3.5 2t2.5 2zM191 217q-2 3 -9 -2q-1 -2 2 -2h2q5 2 5 4zM70 226q0 4 -5 4t-1 -4l5 -5q1 3 1 5zM186 231q-7 7 -8 7q-3 0 4 -7q6 -6 9 -6q1 0 -0.5 1.5zM189 248q-1 3 -3 3t-3 -3t3 -3t3 3zM206 263q-3 5 -6 5 q-1 0 2 -5t7 -5zM93 322q3 5 2 5q-3 0 -4 -3q-2 -4 -6 -2q-3 2 -3 1q0 -3 4 -3.5t7 2.5zM104 369q0 6 -8 -4q-4 -4 -3.5 -4.5t4.5 2.5q7 5 7 6zM103 451q0 2 13 2q12 0 16 -8q9 -17 0 -21q-6 -2 -8 -17t-5 -20q-4 -5 -11 -37q-13 -54 -19 -68q-8 -16 -8 -53v-2q1 -4 -2 -10 t-6 -4q-1 0 -1 0.5t-1 0.5l1 -1q2 -1 -2 -8q-3 -3 -3 -3.5t3 1.5q4 4 16 -6q11 -10 17 -8q9 3 21 3q40 2 40 10q-2 3 3 3t3 6q-2 10 -1 24q1 18 15 32q10 10 13.5 11.5t9.5 -2.5q14 -9 2 -25q-8 -10 -8 -21t-6 -17q-2 -4 -1 -4q5 2 5 0q0 -4 15 -2q8 1 23 1q1 0 24 5 q36 10 51 10h6q33 -3 33 -15q0 -5 -1 -8q-2 -7 -11.5 -9t-17.5 2q-6 3 -11 3q-6 0 -22 -3q-34 -7 -36 -8q-13 -4 -29 -6q-13 -1 -17 -2t-5.5 -3t-1.5 -8q0 -11 -3 -23q-3 -15 -3 -54q0 -59 5 -64t3 -10.5t-9 -5.5q-15 0 -20 22q-4 11 -4 79q0 34 2 44t-1 13.5t-13 0.5 t-43 -3h-23q-14 0 -14 3v2q1 2 0.5 3t-3.5 0q-5 -2 -13 9q-7 10 -7 24q0 11 1 19q2 34 7 44q6 11 4 13t6 28q18 60 20 80t11 53q1 3 1 8z" />
<glyph unicode="5" horiz-adv-x="390" d="M200 13q-1 1 -3 2q-9 0 -2 -3q3 -1 5 1zM253 22q1 1 -0.5 1.5t-3.5 0.5q-9 0 -1 -3q3 -1 5 1zM278 23q-5 5 -6 5l2 -5q4 -4 6 -4t-2 4zM265 24q3 3 3 4l-8 -6q-5 -5 0 -5q3 1 3 2q-1 1 2 5zM291 32q0 6 -7 -3l-3 -4l4 2q6 4 6 5zM324 55q0 2 -3 2.5t-5 -1.5q-2 -3 -6 -1 q-2 1 -2 0.5t2 -2.5q6 -7 6 -4v2q0 3 4 3t4 1zM326 78q0 6 -4 1q-1 -3 1 -4q1 -1 2 0t1 3zM299 151q-1 1 -3 2q-5 0 -7 -2q-1 -2 2 -2zM118 160q1 1 -0.5 1.5t-3.5 1.5q-2 0 -3 1l-1 -1l2 -1q4 -4 6 -2zM151 166q1 1 0 1.5t-4 1.5q-4 1 -4 0.5t2 -2.5q3 -3 6 -1zM111 170 q3 3 -3 3q-11 0 -1 -4q2 -1 4 1zM170 173q3 3 -3 3q-11 0 -1 -4q2 -1 4 1zM216 185q-1 1 -3 2q-8 0 -1 -3q2 -1 4 1zM88 260q-2 2 -3 2t-3 -2q-3 -3 3 -3t3 3zM174 351q1 1 -0.5 1.5t-3.5 0.5q-8 0 -1 -3q3 -1 5 1zM154 351q-1 1 -3 2q-9 0 -2 -3q3 -1 5 1zM112 352l-4 1 q-6 0 -9 -5l1 -1q4 3 8 3q2 0 4 2zM205 358q0 6 -7 -3l-3 -4l4 2q6 4 6 5zM222 358q4 4 2 4q-3 0 -4 -2q-2 -4 -5 -2q-3 1 -7 -3q-3 -3 -3 -3.5t4 1.5q5 4 7 2q2 -1 6 3zM49 377q2 3 10 3t9 -4q2 -4 13 -6q12 -2 15 -5t21 -3q17 0 22 6t13 4q7 -2 7 -4q0 -1 2 -7q2 -4 0 -4 q-1 0 -2 1q-2 1 -3 1t1 -2q3 -3 7 -1q3 3 16 5q29 4 44 12q10 4 19 4q19 0 21 -7q2 -5 -6 -11q-8 -7 -45 -14q-4 -1 -12.5 -3t-12.5 -2q-14 -2 -42 -2q-32 0 -38 -3q-6 -4 -11 0q-3 2 -3.5 1.5t2.5 -3.5q5 -5 -2 -14q-5 -8 -5 -14q0 -5 3 -22q5 -27 3 -29q-1 -1 0 -2t2 -1 q4 0 2 -4q-1 -2 3 -13q15 -37 15 -49q0 -19 18 -9q13 6 15 5t2 2t4 3t7 3q5 5 44 5q22 0 37 -6q16 -6 18 -6q5 0 25 -13t23 -13t17 -19q10 -13 12 -18.5t2 -19.5q0 -26 -15 -54q-5 -8 -11 -14t-8 -5t-2 -1q0 -3 -14 -10t-39 -7h-36q-11 0 -12 -1q-2 -2 -7 -2q-9 0 -21.5 4 t-12.5 8q0 7 7.5 11.5t10.5 -0.5q3 -3 15 -1q4 1 14.5 1t14.5 1q15 1 36 6t26 9q4 3 15.5 21.5t12.5 23.5q0 4 10 14l7 7q-3 -3 -6 -5q-9 -7 -9 -3q0 1 -0.5 3.5t-0.5 4.5q0 4 -6 10t-4 10q1 1 0 2t-3 0t-2 1l1 2q0 3 -1 3q-5 -2 -23 9q-2 0 5 7l6 7l-7 -6q-9 -7 -16 -2 q-2 1 0 4l1 2l-1 -1q-2 -1 -15 5q-15 8 -37 9h-3q-14 0 -31.5 -4.5t-20.5 -8.5q-2 -4 -8 -2q-3 0 -3 -1q1 -2 -1 -2t-12 -8q-13 -10 -26 4q-5 5 -12.5 26.5t-7.5 31.5t-3 10q-7 0 -14 42q0 2 -1 8.5t-2 8.5q-3 12 -3 27q0 16 4 23q9 17 22 13q2 0 -1 3q-4 4 -9 4q-4 0 -14 2 q-9 2 -14 -5q-5 -8 -9.5 -5.5t-2.5 12.5q4 22 7 26z" />
<glyph unicode="6" horiz-adv-x="305" d="M206 31q0 3 -3 3.5t-5 -1.5q-3 -3 -6 -1q-1 -1 -2 -1q3 -4 6 -1t8 1q0 -1 1 -1t1 1zM184 39q-4 6 -10 -1q-3 -4 -3 -4.5t3 2.5q5 2 8 1q2 -1 2 2zM154 46q0 2 -4 2q-6 0 -2 -3q3 -2 6 1zM230 73q0 3 -8 -6l-8 -7l8 6q8 6 8 7zM132 72l-2 3q-1 0 -4 -3q0 -3 4 -3q5 0 2 3z M116 75q-8 6 -10 6q2 -3 6 -6q2 -1 3.5 -3t2.5 -3t2 -1q0 4 -4 7zM118 91l-8 6q2 -3 6 -6q2 -1 3.5 -3t2.5 -3t2 -1q-2 4 -6 7zM108 107q0 2 -4 2q-6 0 -6 -3q-1 -2 2 -2zM98 150q-3 2 -8.5 2.5t-7.5 -1.5q0 -2 6 -2q8 0 10 -2q4 -4 8 3q4 4 3.5 4.5t-3.5 -2.5 q-2 -1 -4 -1.5t-3 -0.5h-1zM242 159q0 3 -8 -4q-3 -4 -2.5 -4t4.5 3q6 3 6 5zM206 162q-12 4 -29 4q-43 0 -59 -21q-7 -10 -12 -6q-2 2 -2.5 2t0.5 -3q3 -7 -6 -5q-4 1 -4 0l6 -3q3 0 14 -16q22 -38 28 -38t11.5 -6t4.5 -11q-2 -5 2 -5h2q5 1 18 -5q4 -3 5.5 -3.5t3.5 -0.5 t3 1.5t4 4.5q7 7 10 6q2 1 2 4q-3 5 0 3q2 -1 2.5 0t-0.5 4v1q0 4 8 30q10 24 10 39q0 10 -6 15q-8 4 -4 4l-7 3q-3 1 -5 2zM228 165l-6 5q-1 0 2 -5t6 -5q0 2 -2 5zM216 175q0 3 -6 -4q-1 -2 -3 -3h1l2 1q6 3 6 6zM156 178q0 1 -1.5 1t-3.5 -1t-3 -2t-0.5 -1.5t2.5 0.5 q6 1 6 3zM174 181q0 2 -4 4q-1 -1 -2 -1q3 -2 -4 -9l-4 -5l6 4q8 6 8 7zM74 219q0 8 -6 2q0 -4 2 -5q4 -2 4 3zM74 232q0 7 -6 1q0 -3 2 -4q4 -2 4 3zM76 258q0 3 -4 3q-7 0 -2 -4q3 -2 6 1zM78 273l2 5q-4 0 -4 -3q-3 -3 -6 -2q-4 2 -4 0q0 -3 4.5 -3t7.5 3zM80 284 q0 2 -4 2q-6 0 -2 -3q3 -2 6 1zM100 337q0 6 -8 -4q-1 -2 -3 -3h1l2 1q8 4 8 6zM144 389q0 2 -4 2q-6 0 -2 -3q3 -2 6 1zM132 400q5 4 23 4q22 0 27 -5q4 -3 8 -20q2 -15 -4 -17q-5 -2 -10 4t-4 11q1 3 -1 4.5t-7 2.5q-11 3 -26 -10q-6 -4 -10 -1q-5 4 -5 0q0 -2 1 -4 q0 -3 -10 -20q-10 -16 -14 -29q0 -6 -6 -21q-10 -22 -10 -75q0 -16 2 -30q4 -14 4 -21q3 -18 16 -7q6 7 24 15t32 10q15 2 30 0t35.5 -13t24.5 -20q2 -8 2 -22q0 -30 -6 -37q0 -1 -1 -3.5t-2.5 -6t-2.5 -6.5q-13 -35 -30 -56q-4 -8 -22 -5q-16 2 -26 7q-8 4 -12 4t-14 7.5 t-10 9.5q0 3 4 1q1 1 2 1q-3 3 -6 2h-1q-4 0 -14.5 8.5t-10.5 12.5q0 2 -2 1q-3 -1 -5.5 2t-4.5 10q0 6 -6 12q-4 8 -4 9q2 2 0.5 10t-4.5 10q-4 4 -8 28q-6 20 -6 30q-2 5 -2 45q0 38 2 39q0 3 4 15q2 21 6 27q1 1 2 4.5t2 4.5q0 9 18 41q5 7 17 19.5t15 12.5q4 2 6 5z" />
<glyph unicode="7" horiz-adv-x="425" d="M120 110q2 2 -4 6q-4 3 -1 -1t1 -6t0 -2t4 3zM125 140q1 1 0 2t-3 1q-7 0 -1 -3q3 -1 4 0zM102 185q1 1 -0.5 2t-2.5 1q-9 0 -1 -4q2 -1 4 1zM109 198l-1 4q-2 -1 -6 -6l-1 -3q5 4 6 3t1.5 -0.5t0.5 2.5zM126 206q1 1 -0.5 1.5t-3.5 1.5l-4 1l2 -2q4 -4 6 -2zM115 207 q0 9 -4 1q-1 -2 1 -4q1 -1 2 0.5t1 2.5zM219 213q0 3 -5 0l-2 -2q-1 -2 1 -2l2 1q4 1 4 3zM157 214q-2 2 -3 2l-2 -2q-2 -2 2 -2q2 1 3 2zM242 215q0 9 -4 1q-1 -1 1 -3q1 -1 2 0t1 2zM165 238q0 5 -7 -4l1 -1q6 4 6 5zM171 252l1 4l-4 -4q-4 -4 0 -6h2q-2 2 1 6zM179 274 q0 4 -6 -3q-3 -3 -2.5 -3.5t3.5 1.5q5 3 5 5zM198 336q0 7 -3 1q-1 -2 1 -4q1 1 2 3zM201 357q2 2 -4 4q-3 1 -3 0.5t2 -2.5q4 -3 5 -2zM190 392q0 9 -4 1q-1 -2 1 -4q1 -1 2 0t1 3zM169 398q-1 1 -3 2q-7 0 -1 -3q2 -1 4 1zM140 409q1 1 -0.5 2t-2.5 1q-9 0 -1 -4q2 -1 4 1 zM86 409l-1 3q-2 -1 -4 -3q-3 -4 1 -4t4 4zM127 414q0 3 -5 0l-2 -2q-1 -2 -0.5 -2t2.5 1q5 2 5 3zM114 415q-2 2 -6 2l-3 -1q2 -2 7 -2zM85 424q6 2 12 2q37 0 69 -15q10 -4 16 -7q11 -6 18 -11q9 -7 9 -27q0 -27 -14 -68q-23 -71 -31 -71h-1q-2 1 -1 -0.5t2 -2.5 q3 -4 1 -6q0 -1 3 -1q14 0 34 6q11 3 47 3q26 0 50 -2q22 -2 46 -2q27 0 31 -4q5 -6 -7 -8l-10 -1q-21 -1 -60 -1q-79 0 -127 -9q-6 -2 -11 -2t-7 -5q0 -2 -4 -10.5t-9 -20.5t-8 -19q-8 -18 -8 -68q0 -25 4 -35q3 -6 2.5 -13t-4.5 -8h-1q-12 0 -15 27q-2 14 -4 23 q-2 8 -2 18q0 42 14 72q6 14 6 16q0 3 4 7t4 7q0 5 5 10q2 3 1 3q-7 -3 -17 -5q-4 0 -4 -2t-3 -1h-2q2 -2 -2 -9t-8 -11q-9 -7 -12 12q-1 8 0.5 11.5t10.5 11.5q13 12 27 11l15 -1l8 19q2 5 11 28q25 54 25 93v2q0 15 5 20l5 6l-7 -6q-5 -6 -10 -1v2q3 -1 3 2t-6 3t-6 3 t-3 2q-4 -2 -18 5q-16 7 -38 7q-11 0 -25 -4q-7 -3 -19.5 -11t-13.5 -10t-9.5 -2t-9.5 3q-2 4 6 9q1 1 23 20q17 15 20 16z" />
<glyph unicode="8" horiz-adv-x="359" d="M162 26q-1 1 -3 2q-7 0 -1 -3q2 -1 4 1zM151 27q-1 1 -3 1q-4 0 -6 -2q-1 -1 1 -1q5 -1 8 2zM137 24q0 3 -3.5 3.5t-5.5 -2.5v-1q2 2 6 -1q3 -3 3 1zM173 31q1 1 0 2t-3 1q-9 0 -1 -4q2 -1 4 1zM190 36q-1 -1 -6 2q-4 3 -1 -1q3 -3 6 -3t3 3q0 1 -0.5 0.5zM211 47 q5 6 2 6q-2 -1 -3 -2q1 -2 -3.5 -5.5t-5.5 -2.5t-3 -1q-1 -1 0.5 -1h3.5q3 0 9 6zM240 62q0 4 -6 -4l1 -1q5 3 5 5zM234 67q0 3 -6 -4l1 -1q5 3 5 5zM92 63q-5 5 -7 5q-1 0 0 -1l4 -4l6 -6q3 0 -3 6zM246 70l1 4q-1 0 -3 -3q-1 -3 -5 -1q-3 2 0 -3q3 -4 6 -4l-1 1q-2 2 2 6z M83 76q1 1 0 2t-3 1q-9 0 -1 -4q2 -1 4 1zM260 81l1 4l-4 -4q-4 -4 0 -6h2q-1 1 -0.5 3t1.5 3zM269 88q-3 6 -3 -1q1 -2 2 -3q2 2 1 4zM80 88l-6 6q-2 0 4 -6l6 -6q2 0 -4 6zM77 102q-1 1 -3 2q-7 0 -1 -3q2 -1 4 1zM281 103q0 4 -1 4t-5 -5q-5 -5 -8 -4q-2 1 -1 -1 q2 -3 7 1q6 4 7 3t1 2zM290 118q0 4 -6 -4l1 -1q5 3 5 5zM292 126q0 7 -3 1q-1 -2 1 -4q1 1 2 3zM73 126l-4 4q-2 0 2 -4l4 -4q2 0 -2 4zM73 143q4 4 2 4q-1 0 -3 -3q-1 -2 -4 -1t-3 0q0 -3 3 -3t5 3zM74 152q1 1 0 2t-2 1q-9 0 -1 -4q1 -1 3 1zM300 163q-2 -2 -7 2l-3 2 q0 -1 3 -4t6 -3t3 3q0 2 -2 0zM82 174q0 4 -6 -4l1 -1q5 3 5 5zM293 174q-4 4 -5 4q-2 0 2 -4l5 -5zM83 181q-2 2 -3 2l-2 -2q-2 -2 2 -2q2 1 3 2zM280 208q1 1 -0.5 2t-2.5 1q-9 0 -1 -4q2 -1 4 1zM111 222q1 1 0 2t-3 1q-7 0 -1 -3q3 -1 4 0zM251 230q-4 4 -5 4q-2 0 2 -4 t5 -4q2 0 -2 4zM117 231q-1 1 -3 2q-7 0 -1 -3q2 -1 4 1zM241 236q1 1 0 2t-3 1q-7 0 -1 -3q3 -1 4 0zM209 238l1 4q-2 0 -3 -2q-2 -3 -4 -2q-3 2 -3 1q0 -3 3.5 -3.5t5.5 2.5zM122 264q-7 0 -9 2q-6 4 -1 -2q8 -8 14 -1zM161 269q0 3 -12 -7l-9 -9l10 8q11 7 11 8zM172 272 q0 4 -6 -3q-3 -3 -2.5 -3.5t3.5 1.5q5 3 5 5zM107 272q0 2 -4 2.5t-5 -0.5q1 -2 4 -3zM182 284q1 1 -0.5 2t-2.5 1q-9 0 -1 -4q2 -1 4 1zM192 298q0 4 -6 -4l1 -1q5 3 5 5zM198 306l1 4l-4 -4q-4 -4 0 -6h2q-1 1 -0.5 3t1.5 3zM94 314q-1 1 -2 1l-4 -1q2 -2 6 0zM210 321 q-1 1 -3 2q-7 0 -1 -3q2 -1 4 1zM214 331q-4 4 -5 4q-2 0 2 -4t5 -4q2 0 -2 4zM103 329q-2 -2 -9 2q-1 1 -3 2h-2q3 -5 7.5 -6.5t6.5 1.5v1zM218 338q-1 1 -3 2q-7 0 -1 -3q2 -1 4 1zM131 358l-6 1q-7 0 -8 -1q0 -1 3 -1.5t6.5 0t4.5 1.5zM230 365q0 7 -3 1q-1 -2 1 -4 q1 1 2 3zM148 366q-1 1 -3 2q-7 0 -8 -6l1 -3q2 -1 2 2q0 4 3 4q4 0 5 1zM135 373q6 4 3 4t-8 -5q-6 -5 -2 -5l3 1q-1 1 4 5zM230 382v4l-4 -4q-3 -4 1 -4q3 0 3 4zM149 385q0 2 -5 -4v-1q5 3 5 5zM153 392l-2 2q-1 0 -3 -2q-1 -1 0.5 -2t2.5 -1t2 1t0 2zM211 396v1 q0 2 -7 2q-10 0 -25.5 -5t-18.5 -10q-1 -1 -2.5 -2t-2.5 0q-4 3 -4 -1q0 -5 5 -8q16 -12 2 -25q-6 -5 -8 0q-1 3 -8 5h-2q-9 0 -23 -17t-14 -28q0 -3 1 -4q2 -5 0 -10q-3 -7 2 -14q7 -8 19 -9q10 -1 24 3q7 2 16.5 10.5t9.5 13.5q0 3 2 3q3 0 10 13q3 5 6 8.5t5 2.5t1 1 q-1 3 3.5 11.5t7.5 8.5q4 0 5 31q1 16 -2 16q-2 0 -2 3zM158 398l-5 3q-5 3 0 -3q7 -6 7 -2q0 2 -0.5 2.5t-1.5 -0.5zM215 405q2 2 -2 2q-8 0 -2 -3q2 -1 4 1zM170 415q15 8 21 8t11 -2q6 -2 11 -4.5t7 -5.5t1 -4h2h1q5 0 9.5 -8.5t5.5 -18.5v-3q0 -23 -32 -70 q-34 -52 -53 -56q-9 -3 -10 -9q-2 -9 -7 -10q-7 -2 -18.5 -10.5t-11.5 -11.5q0 -4 -2 -4t-10 -17t-8 -23q0 -4 -3 -10q-2 -4 -2 -12q0 -30 9 -59q11 -36 30 -44q9 -4 23 -4q28 0 49 15q6 5 10 3q1 -1 2 0t0 2t2 3.5t9 5.5q14 6 17 9q1 1 3 2.5t5 3.5t5 4q22 15 33 51 q4 12 4 25q0 17 -9 36q-6 11 -5 12q2 2 -2 2q-3 0 -15 7t-12 9q0 1 3 0q2 -1 1 1q-2 4 -4 2q-1 -1 -12 1q-4 1 -10 1q-16 0 -22 -14q-5 -13 -7.5 -15.5t-6.5 0.5q-5 5 -5 12q0 9 8 20q9 12 25 15q16 2 16 -1q0 -4 5 -2q13 0 46 -27q29 -27 29 -61v-5q-6 -36 -10 -38 q-4 -4 -8 -14q-5 -10 -20 -25.5t-26 -22.5t-11 -8q0 -3 -7 -3t-7 -3q0 -2 -6 -4q-8 -3 -16 -9q-19 -12 -46 -12q-19 0 -34 6q-13 5 -17.5 8t-2.5 6q-1 1 -1 2q-1 -1 -3 -0.5t-3 1.5q-3 3 3 10l4 5q-1 0 -3 -2q-6 -5 -10 -2q-4 2 -2 2v1q0 2 -1 4.5t-2 5.5q-5 10 -5 15 q0 3 -2 7t-4 17l-3 21q-2 10 -2 17q0 17 4 28q10 35 16 35h1l1 2v2q-1 6 16 23q12 11 15.5 13t6.5 -1t11 -1q11 4 7 8q-1 2 -5 1t-11 -1q-15 0 -23 4q-9 4 -14 16q-1 3 -2.5 7t-3 6.5t-1.5 3.5q-1 2 -1 25q0 22 7 33q19 30 31 30h1q2 0 3 1q-3 3 10 11l12 9q-1 0 -4 -1l1 3 q2 1 3 2q10 8 28 17z" />
<glyph unicode="9" horiz-adv-x="332" d="M221 24q-2 2 -6.5 2t-5.5 -1l4 -2h2zM194 26q0 6 -4 1q-2 -2 1 -4q1 -1 2 0t1 3zM251 31q0 4 -7 -3q-4 -4 -9 0q-3 2 -3 1.5t3 -3.5q4 -5 10 0zM184 29q-1 -1 -3.5 -0.5t-3.5 1.5q-4 2 -8 -2q-3 -3 -2.5 -3.5t3.5 1.5q5 4 8 1q4 -3 6 0v2zM163 31q4 4 3 4q-3 0 -4 -2 q-2 -4 -5 -2q-3 1 -3 0q0 -3 3.5 -2.5t5.5 2.5zM149 36q-1 1 -3 1q-4 0 -6 -2l5 -1zM134 38q-2 2 -8 2q-10 -1 3 -3zM275 43l-1 3q-2 -1 -4 -3q-4 -4 0 -4q5 0 5 4zM277 52l-3 3l-3 -3q1 -1 3 -2q2 1 3 2zM277 65q-2 2 -7 2l-2 -1q2 -2 6 -2zM275 81q0 3 -6 -4l1 -1q5 3 5 5 zM269 92q-4 4 -5 4q-2 0 2 -4t5 -4q2 0 -2 4zM260 105l-4 4q-5 3 -7 0v-2q1 1 3.5 0.5t3.5 -1.5zM222 160q0 3 -4.5 3.5t-6.5 -2.5l1 -1q2 2 6 -1t4 1zM206 187q1 1 0 1.5t-4 1.5l-4 1l2 -2q4 -4 6 -2zM124 238q-1 1 -3 2q-7 0 -1 -3q2 -1 4 1zM79 240q0 3 -5 3q-3 0 0 -3 l4 -4q1 2 1 4zM154 251q0 3 -8 -5l-6 -6l7 5zM72 252h-2q-1 1 -3 1.5t-4 0.5h-5q2 -1 9 -3q5 -1 5 1zM152 257q1 1 -0.5 2t-2.5 1q-7 0 -1 -3q3 -1 4 0zM176 270q-4 4 -5 4q-2 0 2 -4t5 -4q2 0 -2 4zM196 294q-2 2 -3 2t-3 -2q1 -1 3 -2q2 1 3 2zM67 300q-4 4 -5 4 q-2 0 2 -4t5 -4q2 0 -2 4zM69 309q0 5 -3 1q-2 -2 1 -4q1 1 2 3zM150 320q-4 5 -9 -1q-3 -3 -2.5 -3.5t3.5 1.5q5 4 7 2zM82 331q0 6 -4 1q-2 -2 1 -4q1 -1 2 0.5t1 2.5zM159 337l-4 2q-7 0 -1 -3q3 -1 5 1zM141 344q4 4 3 4q-2 0 -4 -2q-3 -3 -14 -3q-38 -2 -53 -50 q-4 -18 -4 -20q0 -7 5 -14q6 -7 4 -9l5 -2h2q5 0 7 -1t1 -3l1 -3l2 2q4 4 9 4q8 0 16 4q12 5 10 15q-2 14 -2 23v9q0 13 9 37v4q-2 0 3 5zM101 347q0 4 -6 -3q-3 -3 -3 -3.5t4 1.5q5 3 5 5zM163 350q0 4 -6 -4q-4 -4 1 -1t5 5zM200 351q-9 0 -11 1q-3 2 -3 0q0 -4 -12 -14 q-14 -12 -14 -18t-4 -8q-4 -1 -4 -21l1 -19l-7 6q-3 3 -5 4t-2 0q0 -2 9 -9l8 -5q-2 4 4 5l4 2t1 2t0 2t3 1q6 0 7 3q1 1 0.5 1.5t-2.5 -0.5q-1 -1 -1 0q1 6 10 12q5 5 8 10q6 10 9 8l1 -1l-1 2q-2 3 3 8t8 15.5t0 11.5q-1 1 -10 1zM225 356q0 6 -4 1q-2 -2 1 -4q1 -1 2 0 t1 3zM179 361q-4 4 -5 4q-2 0 2 -4t5 -4q2 0 -2 4zM209 364l-1 4l-4 -4q-4 -4 1 -4q4 0 4 4zM202 367l-8 2q-5 0 -6 -1q-2 0 1 -1q2 -1 6 -1q6 0 7 1zM178 377q4 1 12 1q14 0 27 -8q15 -9 15 -13q0 -1 0.5 -4.5t0.5 -4.5v-1q0 -8 -8 -25.5t-13 -20.5q-3 -1 -3 -4 q0 -2 -21 -23q-19 -18 -19 -25l1 -1v-3q4 -8 6 -10q5 -5 37 -46q22 -32 24 -34q6 -9 12 -11q2 -1 3.5 -1.5t0.5 -1.5q-2 -2 2 -8t6 -14q2 -7 8 -15q12 -15 15 -46q1 -20 -5 -25q-7 -7 -7 -8q0 -3 -7 -6q-8 -5 -38 -5q-14 0 -18 2q-5 3 -16 1q-12 -2 -23 2q-12 4 -13 4 q-3 0 -9 3t-25 5q-27 3 -29 10q-2 6 2.5 10t10.5 1q4 -3 23 -5q18 -2 19 -3q12 -7 58 -7h8q43 1 46 5q1 2 1 6q0 1 -0.5 4.5t-0.5 5.5q0 16 -3 22t-4 9q-2 5 -4 6q-3 1 -3 5t-2 4q-3 0 -3 7q0 8 -5 11q-7 7 -5 16q0 2 -3 0t-5 3q-1 3 -14 16q-12 12 -11 13t1 2t-1 1 q-4 0 -13 14q-9 15 -14 18q-8 6 -4 9l2 -1q3 -1 4 1q1 1 -1 1h-2q-5 -2 -10 3q-4 4 -2 4t-7 7q-5 4 -3 4q4 -2 1 1q-6 6 -20 1q-21 -8 -34 -8q-5 0 -6 1q-3 3 -7 1h-1q-10 0 -27 19q-4 4 -6 15q0 2 -0.5 7.5t-1.5 7.5q-1 3 2 9q2 2 4 11q3 14 16 33t20 19h1q3 -2 9 4 q5 5 24 4q19 0 23 -4q9 -6 11 1q0 3 6 7q7 5 8 8q2 5 7 7z" />
<glyph unicode=":" horiz-adv-x="161" d="M74 135q1 1 8 1q6 0 9 -5q7 -14 1 -18q-2 -2 -2 -4q0 -5 -7 -5q-2 0 -9 7t-7 9q0 3 1 4q3 3 3 5q0 3 3 6zM84 129q0 2 -1 2q-5 0 -1 -2q1 -1 2 0zM80 127q-2 3 -5 -1q3 1 4 0t1.5 -0.5t-0.5 1.5zM89 129q0 3 -5 -4l-3 -3l4 3zM90 121q-2 2 -3 2q-3 0 -1 -2q1 -1 2 -1 q1 1 2 1zM86 114q-1 2 -3 3q-4 2 -1 -1zM87 112q0 2 -3 -2q-1 -2 -2 -2l2 1zM73 287l5 5l6 -4q4 -4 3 -9q-3 -5 -1 -8q1 -4 -1.5 -7.5t-6.5 -2.5q-9 4 -9 10q0 1 -0.5 4t-0.5 4q0 3 5 8zM78 281q0 1 -2 1q-3 0 -3 -2h4zM82 278h-3l-1 -1l1 -1z" />
<glyph unicode=";" horiz-adv-x="165" d="M87 66q2 2 5 2q8 -2 3 -15q-2 -6 -2 -7q0 -2 -2 -4q-7 -8 -6 -9q0 -1 -3 -6q-1 -1 -2 -3q-2 -2 -2 -3q0 -2 -2 -2q-4 -2 -11 -24q-1 -4 -5 -4q-10 1 3 30q2 5 10 21q4 8 7 13q6 10 7 11zM87 49v2l-2 -2q-1 -2 0 -2q2 0 2 2zM78 35l-3 3q0 -2 1 -3l3 -2q0 1 -1 2zM82 283 q4 2 7 2q5 0 5 -6q0 -2 3 -8q4 -7 -9 -11q-13 -3 -17 2l-3 4l4 7q4 6 7 6q2 0 1 1t2 3zM88 274q0 1 -4 -2zM79 266q0 2 -3 -2q-1 -2 -2 -2l2 1z" />
<glyph unicode="&#x3c;" horiz-adv-x="255" d="M155 229q6 4 9 4q7 0 3 -6q-3 -3 -1 -4q1 -1 -2 -4q-2 -2 -2 -3q0 -2 -9.5 -14t-14.5 -17q-1 -1 -2 -2.5t-3 -4t-3 -4.5q-6 -8 -8 -10q-3 -3 -3 -5q0 -1 -3 0l-1 -1l-2 -5q-35 -38 -35 -41q1 -1 8 -1t9 -2q3 -3 6 -3q27 -4 32 -7q2 -1 14 -3q6 -1 13 -1q1 0 9 -2 q15 -2 21 -5q4 -2 4 -4q0 -3 3 -3q4 0 4 -4t1 -5q4 -4 -3 -4q-3 0 -6.5 3.5t-2.5 5.5v1q-1 -1 -7 1t-11 2q-1 0 -4.5 0.5t-8 1.5t-7.5 1q-4 1 -37 5q-5 0 -9 2t-5 2t-1.5 1t0.5 2h-1q-1 -1 -3 -1q-16 0 -31 6q-12 5 3 19q32 32 32 35l4 2q3 1 3 3l5 8q1 2 4.5 5.5t4.5 5.5 q6 8 7 9q2 2 6 10l5 8q3 3 5 6q4 6 5 6q2 0 -2 2q-2 2 -2 4t2 2q3 0 8 3zM112 94q-1 2 -2 3q-3 3 -4 0v-1q2 2 4 -1zM127 94q0 3 -2 3q-3 0 -1 -3l3 -2v2zM147 90q0 2 -2 2q-4 0 0 -2q1 -1 2 0zM173 86q0 5 -2 1q-1 -1 0 -2q2 0 2 1z" />
<glyph unicode="=" horiz-adv-x="246" d="M80 139q2 2 6 2t6 -2q1 -1 21 -5t23 -5q4 -1 6 0q2 2 13 1t17 -3q2 0 6.5 -1.5t5.5 -1.5q10 -2 0 -6q-4 -1 -7 0q-2 2 -14 2q-2 0 -8.5 -0.5t-10.5 -0.5h-4h-3.5h-3h-2.5q-3 1 -15 3q-2 0 -5 0.5t-5 1.5h-2q-2 2 -5 0q-2 -2 -7 1q-8 3 -9 2q-3 -1 -5 0.5t-1 5t3 6.5z M71 184h6q10 -2 30 -2h2q2 1 4 1q13 0 39 -6q6 -2 7 -5t-4 -5q-3 -1 -6 -1q-2 2 -37 3q-25 0 -29 2t-10 -2q-12 -6 -9 5q3 9 7 10zM88 180q0 3 -4 -3l-1 -2l2 2zM113 178q-1 0 -4 -2q-2 -3 1 -1z" />
<glyph unicode="&#x3e;" horiz-adv-x="248" d="M56 205q2 2 8.5 1t9.5 -3q3 -3 8 -4q7 -2 8 -3l8 -3q4 -1 4 -2q-1 -1 2 -1q4 0 4 -1q0 -3 24 -7q6 0 22 -4t20 -4q6 0 8 -2t6 -4q3 -1 3 -7q-1 -5 -6 -11.5t-7 -5.5q-1 1 -1 -1q1 -2 -2.5 -4.5t-12.5 -6.5q-3 -2 -9.5 -5.5t-8.5 -4.5q-8 -4 -10 -6l-2 -2l-10 -8 q-2 -2 -7 -6.5t-7 -5.5q-7 -4 -10 -11q-4 -7 -6 -5q-1 1 0 2q-1 0 -2 1q-2 -1 0 -3v-4q0 -2 4 -2t5.5 -3t-0.5 -5q-3 -4 -10.5 -1.5t-8.5 7.5q0 2 1.5 5.5t3.5 6t3 2.5v1q-1 2 0.5 4.5t3.5 1.5v1q0 4 24 21l20 15q5 5 8 5q2 0 2 1q0 2 12 10t14 7h2l2 6l2 5l-8 1q-8 0 -22 4 q-4 1 -12.5 2.5t-9.5 1.5q-2 0 -4 0.5t-3.5 0.5h-2.5l-2 1q-3 1 -18.5 6.5t-17.5 5.5q-4 0 -12 5t-10 8q-2 5 0 7zM158 171q0 2 -2 2q-3 0 -2 -2l4 -3v3zM174 169q0 1 0 0.5t-2 -2.5l-2 -2q-2 -1 2 1zM186 162l-2 1q-1 0 -2 -1q0 -2 2 -2t2 2zM100 95q-1 0 -4 -2q-3 -4 2 -1 z" />
<glyph unicode="?" horiz-adv-x="236" d="M104 -14q13 3 18 -3q3 -3 3 -9q0 -10 -7 -28q-5 -12 -12 -12q-10 0 -14 9.5t3 17.5q4 4 4 10q0 14 5 15zM107 -45q-1 3 -4 3q1 0 2 -3q2 -4 5 -4q-1 0 -3 4zM62 425q9 3 18 3q5 0 19 -2q29 -5 56.5 -28.5t28.5 -45.5v-2q0 -14 -9.5 -40.5t-14.5 -26.5h-1l-1 -1v-1 q0 -3 -4.5 -16t-7.5 -16q-2 -2 -20.5 -39t-18.5 -40q0 -2 -2 -2q-4 0 -4 -5t-3 -14q-7 -19 0 -19q5 0 19 -7q20 -9 8 -11q-1 -1 -3 -1q-1 0 -4 -1l-3 -1q-5 -1 -27 9q-7 4 -10.5 11t-0.5 12q1 2 2 6t2 6q2 8 10 21q3 4 7.5 14.5t6.5 13.5q8 14 10 16l9 20l10 20q4 4 10.5 19 t6.5 19t3 7q10 8 10 46q0 14 -4 16q-3 1 -3 5q0 3 -11 14q-22 20 -28 20l-3 1q-6 4 -30 4q-10 0 -10 -2t-5 -2q-16 0 -2 -29q6 -11 0 -18q-3 -3 -4 -3t-7 4q-7 7 -7 12q0 6 -4 8q-10 8 0 31q5 9 16 15zM100 417q2 2 -2 2q-5 0 -1 -2q1 -1 3 0zM73 414q1 1 0 2t-3 1 q-9 0 -1 -4q1 -1 4 1zM59 405q1 1 -2 1q-5 0 -1 -2q1 -1 3 1z" />
<glyph unicode="@" horiz-adv-x="333" d="M119 279q9 2 16 0q12 -3 18 -3q53 -3 53 -7v-2q0 -2 1 -1q3 1 12.5 -7t9.5 -12v-9q0 -6 -8 -19q-9 -14 -9 -19v-4l-1 -2q0 -2 -5 -5q-6 -4 -6 -7q0 -2 -19 -20q-4 -3 -24 0q-6 2 -6 -1q1 -2 -2 -7t-5 -5l-2 -4q-1 -4 -7 -3q-6 0 -8 -2t-4 0q-1 0 -3.5 1t-4.5 2l-1 1 q-1 1 -2.5 2t-3.5 2q-7 4 -11 3q-6 -1 -1 -6q1 -3 8 -5q3 -1 17 -9q17 -11 45 -11q15 0 36 6q34 11 34 14q0 4 5 7t13 14q5 9 4 13q-2 5 -1 9q1 6 9 6q15 0 15 -15q0 -8 -6 -19q-4 -7 -19 -20t-24 -18q-20 -9 -46 -11q-20 -2 -26 -2q-21 0 -33 6q-3 3 -10 5t-5 5q2 4 -2 1 q-1 -1 -2 -1q-5 0 -15 8t-10 13v1h-2q-2 -1 -4 4l-3 5q-1 3 -2.5 5t-2.5 4l-1 1q0 1 -0.5 1t-0.5 1t-0.5 1t-0.5 1q0 5 -4 13q-7 17 -7 34t7 25q5 5 5 7q0 1 3 4.5t6 5.5l3 2v2q-2 4 1 3q2 -1 3 -0.5t0 2.5q-2 2 1 2l8 5q5 3 12 5q1 0 6.5 1.5t8.5 2.5zM144 264q-24 3 -25 2 q-3 -2 -7 -2q-5 0 -14 -7l-6 -5q-1 -3 -4 -5q-6 -4 -8 -8q-3 -5 -5 -3v-1q5 -3 0 -9q-3 -6 -3 -20q0 -13 3 -16q3 -2 0 -3q0 -2 3 -2q8 0 1 5l-2 2h1q2 -1 2.5 0t-0.5 6t2 9t6 2q-2 2 5 8q8 6 5 9q-1 2 4.5 6.5t9.5 4.5q11 0 1 -16q-3 -4 -8 -9q-8 -8 -8 -10t-1 -2t-1.5 -4 t0 -9.5t2.5 -8.5q3 -6 3 -7q0 -2 10.5 -8t16.5 -7t8 1q1 1 2 5t1 6.5v3.5q-5 1 -11 10q-1 3 -2 5q-13 11 -3 15h4q-1 -1 1 -3q1 1 2 1q-1 2 0 3t0 4q-5 5 5 6h5q0 2 -1 3q-3 3 -3 11q0 6 -4 10q-3 3 -1 8q1 5 9 4q12 -1 26 -19q4 -5 4 -21q0 -17 -4 -17h-1q-1 1 -1.5 0.5 t0.5 -1.5q1 -2 6.5 -2t7.5 1q2 2 5 2q4 0 4 2q0 1 4 5q6 6 13 18t7 17q0 3 2 5q3 3 -1 5q-5 0 -9 6q-1 2 0 3h-2q-1 -1 -13 3q-14 4 -21 4t-7 3q1 2 -2 3q-4 1 -5 -1q-2 -2 -8 -1zM210 257q0 1 -3 1t0 -1q1 -1 3 0zM216 254l-1 2q-2 -1 -3 -2q0 -1 3 -1q1 0 1 1zM223 240 l-2 3q-1 -2 -2 -3q0 -1 2 -1t2 1zM153 231l-4 4q1 -3 2 -4l4 -2zM161 203q0 5 -2 1q-1 -1 1 -3q1 0 1 2zM173 179q-2 1 -3 2q-4 3 -5 0v-1q3 2 5 0zM75 176l-3 4q1 -3 2 -4l4 -2q-2 1 -3 2zM81 171q0 5 -2 1q-1 -2 1.5 -3.5t6.5 -2.5q4 0 4 1q0 3 -4 3q-6 0 -6 1zM149 169 q-1 1 -2 1t0 -1t-1 -5h1q2 1 2.5 2.5t-0.5 2.5zM105 161l-1 1q-2 0 -3 -1q0 -1 3 -1q1 0 1 1zM91 160q1 1 0 1q-4 0 -2 -4q1 -1 3 -2h1q-2 1 -2.5 2.5t0.5 2.5zM114 154q0 2 -2 2q-6 0 0 -2q1 -1 2 0zM84 152l-4 3l3 -3l2 -3q0 2 -1 3zM263 151q-1 1 -5 1h-1q3 -3 5 -3 q3 0 1 2zM92 145q-1 2 -2 1.5t-1 -2.5q0 -1 3 -1q1 1 0 2zM259 146q0 2 -5 -3l-4 -5l5 4zM249 136q0 5 -8 -1l-3 -3l3 2q5 3 6 2q2 -2 2 0zM213 119h-4l-1 -1q-1 -1 -0.5 -1t2.5 1zM202 116l-4 2l2 -2l3 -4q0 3 -1 4z" />
<glyph unicode="A" horiz-adv-x="377" d="M186 503q11 5 14 4q11 -4 11 -36q0 -4 0.5 -7.5t0.5 -5.5v-3q0 -1 2 -11q2 -13 5 -20q5 -15 5 -19q6 -57 15 -85q2 -6 8 -34.5t7 -36.5q0 -7 4 -21q3 -10 5.5 -11.5t12.5 -0.5q18 2 18 -3q-1 -3 -7 -7q-10 -6 -15 -6q-7 0 -5 -6q6 -28 12 -36q4 -8 5 -14q2 -11 10 -23 q9 -14 13 -43q0 -2 1 -8.5t2 -8.5q2 -7 10 -14q9 -6 10 -21v-3q0 -12 -4 -23.5t-9 -11.5q-17 0 -24 39q-6 33 -6 42q0 7 3 9q2 2 -2 2q-8 0 -10 14q0 4 -5 9q-6 6 -3 6v3q-1 2 -3 7l-4 10l-4 10t-2.5 8t0.5 3q2 0 -2 9q-6 17 -8 28q-1 11 -19 11q-13 0 -13 -3t-7 -3 q-95 -2 -100 -7q-4 -4 -11 -45t-9 -70q-3 -63 -16 -63q-14 0 -14 36q0 30 1 34q3 10 8 32.5t6 25.5q1 7 2.5 12.5t4 13.5t4.5 15q5 18 3 26q-1 8 5 14q7 7 7 13t3 9t5 12q2 11 7 24q4 12 13 50q2 9 9 24q4 9 13 43q8 30 10 32q4 4 2 4l1 6q2 2 4 17q2 12 3 14q2 5 4 18 q2 14 13 21zM195 486q0 1 -1.5 1t-3.5 -1t-3 -2q-1 -2 1 -2l2 1q5 2 5 3zM194 454q0 6 -4 1q-1 -3 1 -4q3 -1 3 3zM199 440q-1 1 -9 7q-7 6 -9 2q-1 -3 0 -3q5 1 4.5 -4t-6.5 -23q-10 -30 -11 -34q0 -1 -0.5 -3t-1 -3.5l-1 -3t-0.5 -2.5q-21 -55 -21 -73v-1q2 -4 -2 -6 q-3 -2 -5 -11q-2 -11 -7 -22q-2 -4 -5 -15t-4 -13l-5 -16l11 2q12 2 14 -2q1 -2 20 -2q51 0 59 6q5 3 5 1q0 -3 8 -5q6 0 6 2q-2 3 -5 26q-1 12 -11 52q-1 5 -2.5 11t-3 11.5t-1.5 6.5q0 2 -1 7.5t-1 7.5q-1 4 -4 10q-1 2 -3 17q-2 16 -5 27q-4 15 -2 19q2 5 -1 5q-3 2 -5 9 q0 1 -1 4t-1.5 5t-0.5 3q-2 3 0 3q1 0 3 -1zM180 439q3 3 -3 3q-9 0 -2 -4q4 -2 5 1zM229 346q0 5 -7 -4q-6 -8 1 -2q6 4 6 6zM251 215q0 7 -4 2q-2 -4 1 -5q3 -2 3 3zM212 206q0 5 -7 -4q-6 -8 1 -2q6 4 6 6zM273 150q-1 3 -3 3t-3 -3q-1 -1 0 -1.5t3 -0.5q3 1 3 2z M290 111q-3 3 -7 3q-3 -1 -3 -2q2 -2 7 -2zM309 34q0 1 -2 1t-4 -1t-3 -2q-1 -2 1 -2l2 1q6 2 6 3zM75 24l3 5q-2 0 -4 -3q-2 -4 -5 -2q-2 1 -2.5 1.5t-1.5 -0.5q0 -3 4 -3.5t6 2.5zM310 23l4 6q-2 0 -5 -5t-7 -3q-3 1 -3 0q1 -6 11 2z" />
<glyph unicode="B" horiz-adv-x="413" d="M155 455q1 1 11 -1q36 -10 41 -15t9 -7q12 -7 24 -20q7 -9 17 -16q8 -6 6 -10q-1 -3 1 -3q4 2 19 -17q4 -4 12 -14q9 -11 10 -14q2 -6 2 -12q0 -27 -9 -27q-4 0 -2 -3t-3 -3q-2 -1 -3 -2q0 -2 -15 -12t-19 -10q-2 0 -13 -7q-10 -7 -13 -5q-2 1 -10 -5t-15 -8q-8 -2 -8 -5 t-3 -1q-2 1 -1 -2l1 -2q3 -4 21 -15q5 -3 23 -15q9 -6 11 -6q6 0 18 -6t13 -6q2 0 11 -9t11 -9q3 0 12 -10t9 -13v-1q-1 -3 0 -3q11 1 24 -18q12 -17 14 -28v-5q0 -11 -3 -23.5t-6 -12.5t-2 -2q2 -4 -5 -7q-4 -2 -7 -5q-2 -4 -14.5 -11t-18.5 -9q-10 -2 -25 -2t-33 -4 q-15 -3 -28 -1q-11 1 -13 -1t-7 1t-3 6q1 1 0.5 1.5t-2.5 -0.5q-3 -2 -1 -4q1 -1 -3 -3t-8 -2.5t-6 0.5t-5 -2q-4 -4 -7 -1t1 8t1 5q-2 0 -3 -1t0 -2t-3 -5q-1 -1 -6 -1q-19 0 -28 9q-3 3 -3 7q0 6 7.5 12.5t19.5 7.5q8 1 8.5 -2t-6.5 -8q-7 -6 -6 -7q0 -2 29 -2q44 0 62 3 q38 4 52 10q4 2 5 2q4 1 11.5 5t7.5 5q0 2 8 6q21 10 21 22q0 10 -3 18q-4 8 -2 12l-1 1q-3 -1 -6 3t-1 6l-1 1q-2 -1 -2 1t-5 5t-3 7q1 2 -1 1q-3 -2 -14.5 6t-9.5 11q1 2 -1 1q-2 -2 -9 4.5t-6 8.5q2 2 -2 2t-14 5q-11 5 -7 10q6 7 -3 0q-6 -5 -16 0q-41 23 -49 23 q-5 1 -12 6.5t-5 7.5q1 2 -1 1q-3 -1 -7 3l-1 4l-1 4q-7 9 11 14q1 0 8.5 2.5t10.5 4.5q9 6 12 3q1 -1 1.5 0t-0.5 2q-1 2 10 10q2 1 5 3t5 3l2 2q2 2 7 4q8 3 16 12q11 11 23 14q14 4 15 11q2 8 -1 9q-3 2 -3 5t-3 5t-3 8q-1 5 -3 5q-1 -1 -3.5 1t-4.5 5.5t-2 5.5q0 5 3 8 q1 2 0.5 1.5l-2.5 -2.5q-6 -6 -19 9q-33 34 -51 45l-14 6l-9 1q-6 2 -12 2q-2 0 0 4h-1q-2 -1 -4 -3q-7 -7 -11 -7q-6 0 -7 -3q-2 -4 -10 -8q-6 -3 -24 -26q-15 -18 -15 -42q0 -5 -2 -13q-2 -10 -2 -36q0 -43 3 -54q0 -2 6 -22q4 -14 4 -22q0 -7 5 -22q14 -35 25 -84 q5 -18 1 -27q-2 -4 -2 -11q2 -5 -9 -3q-11 1 -12 8l-1 4q-2 5 -3.5 10.5t-3.5 9.5q-6 17 -3 22q3 3 0 3q-1 0 -3 -1q-1 0 -1 -3q1 -5 -5 1l-6 5q-8 8 -8 13q0 4 -2 6q-3 2 -5 39l-1 37q0 15 -1 34q-2 43 -4 51q-2 14 -2 17q0 8 7 29q2 6 2 8l4 12q1 4 3 11l1 6q2 8 7.5 17.5 t8.5 8.5q4 -2 6 2q1 3 -2 1q-3 -1 -3 3q0 5 5 3h3q-1 1 -1 3q0 8 23 24q18 13 28 15zM136 433q-2 3 -4 3q-5 0 -2 -3q1 0 3 -1q2 0 3 1zM106 409q-1 1 -3 2q-5 0 -1 -3q2 -2 4 1zM102 402q0 5 -9 -7l-6 -8l7 7zM254 390q-4 4 -5 4q-2 0 2 -4t5 -4q2 0 -2 4zM88 384 q0 2 -5 -4l-2 -3l2 2q5 3 5 5zM282 355q1 1 -0.5 2t-2.5 1q-6 0 -1 -4q2 -2 4 1zM294 343l-1 4l-4 -4q-3 -4 1 -4t4 4zM80 343q0 3 -6 -4q-2 -4 -2 -4.5t3 2.5q5 3 5 6zM294 328q0 9 -4 1q-1 -2 1 -4q1 -1 2 0t1 3zM73 316q1 1 0 2t-3 1q-5 0 -1 -3q3 -3 4 0zM67 312l-5 5 l2 -5l4 -4zM301 314q-1 2 -5.5 2t-5.5 -2l4 -2h2q5 1 5 2zM275 301l-1 1l-4 -5q-3 -5 1 -1q4 3 4 5zM73 278q2 4 -1 2q-1 0 -3 -2q-3 -3 -1 -3q4 0 5 3zM73 255q-1 2 -2 2q-2 0 -3 -2q-1 -1 0.5 -2t2.5 -1t2 1t0 2zM75 245q3 3 2 3q-3 0 -4 -3q-2 -3 -4 -1t-4 -1q-1 -2 2 -2 zM73 230q-2 5 -7 -2q-2 -3 1 -1q3 3 6 1v2zM81 227l1 3q-2 0 -3 -2q-2 -4 3 -6q2 0 3 1t-2 1t-2 3zM182 227q-3 -3 -7 1v-1q4 -6 7 -3q4 4 7 0v1q-4 5 -7 2zM204 215q-2 2 -6 2h-3t0 -1q2 -2 6 -2h3t0 1zM75 205q0 3 -6 -4q-3 -5 1 -1q5 3 5 5zM83 205q0 3 -6 -4q-3 -5 1 -1 q5 3 5 5zM86 191l1 4q-1 0 -3 -3t-4 -2q-1 1 -1 -1v-2q1 -4 5 -4q2 0 -3 -5q-6 -4 0 -3q4 2 4 -2l-3 -7q-2 -3 2 -7q4 -5 3 -9q-2 -5 1 -8q4 -2 2 -4q-1 -1 0.5 -1.5t3.5 -0.5l3 1q-3 2 -2 4q3 3 -3 3t-1 3q3 3 1 3q-6 0 0 11q2 3 -1 3q-4 0 -4 9t-2 11q-1 1 -0.5 3.5 t1.5 3.5zM290 168l-2 3q-2 0 -3 -3q1 -1 3 -2q4 0 2 2zM100 152q1 1 -0.5 2t-2.5 1q-5 0 -1 -3q3 -3 4 0zM81 146q1 1 0 2t-3 1q-5 0 -1 -3q3 -3 4 0zM111 123q-5 5 -8 5q-4 0 -3 -1q2 -2 4 -2q3 0 6 -3zM88 125l-1 1l-4 -5l-2 -3l2 2q5 3 5 5zM338 122q-4 4 -5 4q-2 0 2 -4 l5 -5zM101 119q-3 3 -6 3h-3t0 -1q3 -3 6 -3h3t0 1zM104 104q0 2 -5 -4q-3 -5 1 -1q4 3 4 5zM114 102q-2 5 -7 -2q-1 -2 -2 -3v-1l2 2q5 4 7 2v2zM352 93q2 2 -2 2q-5 0 -1 -3q2 -2 3 1zM107 92l-1 1l-4 -5l-2 -3l2 2q5 3 5 5zM115 80l-1 1l-4 -5l1 -1q4 3 4 5zM315 38 q0 8 -3 2q-1 -3 1 -5q1 1 2 3zM305 35q-1 1 -2 3t-2 2l1 -5q4 -4 5 -4q2 0 -2 4zM285 30v4l-4 -4q-3 -5 1 -5q3 0 3 5zM237 23q0 3 -5 -3q-2 -4 -2 -4.5t3 2.5q4 3 4 5zM251 20q0 2 -2 2.5t-5 -0.5t-4 -3v-1q4 4 7 2q4 -2 4 0zM157 18q1 1 0 2t-3 1q-6 0 -1 -4q2 -2 4 1z " />
<glyph unicode="C" horiz-adv-x="434" d="M200 470q10 5 17 2t4 -11q-12 -30 -14 -30q-12 -3 -12 0q2 2 -3 4q-3 1 -12 -8l-10 -10q-2 0 -12 -8l-4 -4q4 2 2 -1q0 -1 -2 -3q-4 -5 -7 -7t-5 -0.5t0 4.5q1 2 -1 1q-3 -2 -1 -6q4 -6 -3 -14q-19 -24 -19 -27q0 -2 -2 -1q-1 1 -2 0t-1 -2q0 -5 -7 -18.5t-9 -13.5 q-1 1 -2 -0.5t0 -3.5t1 -3t-4 3q-7 5 -2 -1q3 -4 -4 -20q-11 -24 -11 -71q0 -23 2 -34q0 -2 1 -7t2 -9.5t1 -7.5q3 -24 11 -40q8 -17 6 -20t4 -7q6 -3 4 -10q-1 -6 4 -7q6 -2 4 -5q-1 -2 -0.5 -2.5t2.5 0.5q1 1 1.5 -0.5t-0.5 -3.5q-1 -3 -0.5 -3t2.5 2q5 5 6 -3q2 -5 7 -5 q4 0 7 -3q2 -4 22 -13q19 -9 47 -12q23 -2 30 -5q6 -4 72 -5q17 0 25 2q7 2 14.5 13.5t8.5 20.5l2 9q0 5 1 13q2 15 5 17q4 2 10 2t7 -2v-2q0 -6 -5 -34q-1 -2 -2 -7t-1 -6q-5 -21 -14 -30q-3 -4 -14.5 -8t-19.5 -4q-55 0 -87 4q-5 1 -37 3q-23 1 -51 15l-34 17 q-8 5 -13.5 12t-4.5 10q1 2 0.5 2.5t-2.5 -0.5q-1 0 -4.5 4t-6.5 9.5t-3 8.5q0 2 -7 14q-7 13 -5 17q1 2 -1 2h-1q-8 0 -11 56q-2 22 -3 26q-2 12 -2 23q0 26 4 34l6 18q4 24 10 22q3 -1 1 2t4 15.5t9 12.5q2 0 2 2q-1 3 1.5 9t4.5 6q3 0 7 10t6 10q4 0 6 8t12 18 q11 11 9 11l2 4q2 3 5 8t6 9q23 28 30 28h1h1q-1 2 1.5 6t5.5 4t1 -4v-1q1 0 2 2q6 6 9 8zM195 454q5 5 3 5q-1 0 -5 -4q-5 -5 -6 -3l-2 1q0 -2 1.5 -2.5t4 0.5t4.5 3zM180 448l-1 2q0 1 -1 1l-3 -3q1 -1 3 -2q4 0 2 2zM210 450q0 4 -6 -4q-2 -3 1 -1q5 3 5 5zM201 438 q0 1 -3 4q-4 4 -6 0v-2q2 2 6 -1q3 -3 3 -1zM172 437q5 5 4 5t-5 -4q-5 -4 -6 -3l-2 1q0 -6 6 -2q2 1 3 3zM180 428q2 2 -2 2q-8 0 -2 -3q2 -1 4 1zM169 425q-1 1 -3 2q-7 0 -1 -3q2 -1 4 1zM161 419q1 1 0 2t-3 1q-7 0 -1 -3q3 -1 4 0zM148 404q0 4 -4 4t-1 -4l4 -4 q1 2 1 4zM118 362q0 4 -6 -3l-2 -4l3 2q5 3 5 5zM104 337q0 2 -7 -6l-5 -6l6 6zM88 306q0 4 -6 -4q-2 -3 1 -1q5 3 5 5zM73 278q0 7 -3 1q-1 -3 0 -4t2 0t1 3zM68 258q-4 4 -5 4q-2 0 2 -4l5 -5zM71 249q0 5 -9 -6l-6 -8l7 7zM67 207q0 7 -3 1q-1 -2 1 -4q1 1 2 3zM72 169 q2 2 -3 4q-3 1 -3.5 0.5t1.5 -2.5q3 -3 5 -2zM74 153q-4 4 -5 4q-2 0 2 -4t5 -4q2 0 -2 4zM74 133l-5 5l2 -5q4 -4 5 -4q2 0 -2 4zM89 114q-3 -2 -8 3q-6 5 -1 -1q6 -8 9 -3v1zM88 102l-5 5l2 -5l4 -4zM368 52l-4 4l1 -4l5 -5zM131 49q0 7 -3 1q-1 -2 1 -4q1 1 2 3zM362 37 q-4 -3 -7 0q-6 4 -1 -2q4 -5 8 -2q3 3 3 5t-3 -1zM164 33q-2 4 -4 2l-3 -4l-1 -2q0 1 1 1q5 3 7 1v2zM195 20q0 4 -4 4q-3 0 0 -4l3 -4q1 2 1 4zM349 21q0 3 -6 -4q-2 -3 1 -1q5 3 5 5z" />
<glyph unicode="D" horiz-adv-x="568" d="M108 6l-1 2q-1 2 -1 3q2 -4 2 -5zM108 4h-13q-20 -1 -21 1q-1 1 5 5l19 10l-2 1h4q16 8 23 2l-1 -3l-4 -4l-3 -4q-1 2 -2 1t1 -2t2 -2q1 -1 4 -3q-1 0 -5 -1t-7 -1zM123 8q1 2 3 4l1 1v2q0 4 -2 6l-6 -6l-3 -3q0 -1 1 -1q2 0 3.5 -1.5t2.5 -1.5zM125 9q3 3 3 4q5 4 11 5 t6 -1q-2 -2 -12 -3q-6 0 -2 -4q3 -3 13 1t19 5q5 0 3 6q-1 3 -0.5 3t2.5 -2q4 -4 10 -1q4 0 8 -2q-29 -10 -48 -13q-15 -2 -17 -1q5 1 7 3v1q-1 -1 -2 -1h-1zM100 14q1 -3 -1 -4q-1 1 -2 3q0 5 3 1zM215 22q0 1 -7 -4l-2 -2l-3 -2q-3 2 -9 4t-7 2q14 5 16 7q3 3 13 5t24 9 q17 8 35 15q19 7 21 9q3 3 36.5 19.5t37.5 16.5h1q1 -1 1.5 0.5t-0.5 3.5q-1 1 2 3.5t9 4.5q17 7 24 13q13 8 43.5 38t34.5 38q5 10 5 18q0 19 -22 41q-10 10 -6 15q3 4 8 2q2 -1 2 0t-1 2q-3 4 -9 -1q-4 -4 -7 -3t-13 9q-4 3 -15 14q-1 3 -5 3q-6 0 -15 8t-7 12q3 5 -1 2 q-5 -2 -20 5q-53 25 -93 38q-24 8 -46 18q-16 7 -20 7q-3 0 -12 7q-3 3 -12 7q-3 2 -3 3q0 2 -11 2q-14 0 -22 4q-35 16 -58 16q-11 0 -14 -6q-2 -6 2 -19t0 -19q-3 -5 -3 -52q0 -57 3 -82q0 -4 1 -15.5t2 -15.5q3 -24 5 -38q1 -4 2 -10.5t2 -9.5v-4v-2q0 -30 8 -46 q3 -8 9 -8q4 0 8 -8q1 -3 1 -9q0 -15 -7 -30t-15 -15h-1q-15 1 -18 36q-1 13 -4 26q-1 4 -3 26q-3 23 -4 43t-4 38q0 3 -1 11.5t-2 11.5q-3 16 -4 33q-4 52 -12 87q-5 18 -5 75q0 16 1 17q2 3 18 7q14 3 29 3q4 0 13 -0.5t13 -0.5q10 -2 10 -5q-2 -3 -1.5 -3t3.5 3 q4 4 12 -2q6 -5 5 -2q-2 5 2 7q3 1 2 0q-3 -4 1.5 -8t11.5 -4q5 0 6.5 -1t0.5 -5v-4q1 1 2 1q13 0 61 -21q35 -15 41 -17q12 -4 26 -11q10 -5 15 -5t19 -7q15 -7 25 -9q13 -2 26 -12t18 -10q4 0 13 -11q8 -10 13 -10q7 0 27 -22q6 -6 10 -6q5 0 16 -15q6 -8 14 -16 q15 -11 15 -45q0 -11 -4 -15t-4 -9t-9 -19t-12 -14h-1q-1 1 -2 0t-1 -2q0 -5 -6 0q-4 3 -4.5 3t2.5 -4q8 -10 -16 -24l-6 -3l-3 -2l1 3l1 1q4 4 3.5 4.5t-4.5 -2.5q-6 -4 -4 -10q2 -3 0 -4t-6 0l-6 1q1 -1 -1.5 -5t-7 -7t-7.5 -3q-6 0 -8 -4t-9 -2q-5 1 -6 -1q3 -3 -7 -11 q-8 -6 -8 -5l-5 -1l-1 -1q-17 -14 -29 -14q-2 0 -3 1t-0.5 2t2.5 0q5 -2 6 0q1 1 -1 2t-5 1q-8 0 -8 -4t2 -3q3 2 3 -2t-7 -7t-11 -1q-2 1 -2.5 0t0.5 -2q2 -4 -1 -4q-4 0 -4 3q0 7 -10 1l-5 -4q-3 -3 -2.5 -3.5t4.5 2.5q6 5 8 1q4 -5 -8 -8q-3 -1 -8 -1q-10 -2 -21 -7 q-8 -4 -13 -4q-3 0 -23 -9q-22 -11 -23 -8q0 1 3 5q4 5 -1 1q-5 -3 -5 -7q0 -3 -3 -3l-1 1q-1 0 -2.5 1t-3.5 2l4 4l5 5q3 1 3 2zM250 33q0 4 -6 0l-2 -2q-1 -2 0 -2.5t3 0.5q5 2 5 4zM268 43q0 4 -7 -4q-3 -4 -3 -4.5t4 2.5q6 5 6 6zM107 51q1 3 -3 3q-9 0 -2 -4q4 -2 5 1z M114 65l-2 -2h-4q-7 0 -7 3q2 2 6.5 1.5t6.5 -2.5zM332 74q0 6 -8 -4q-3 -4 -3 -4.5t4 2.5q7 5 7 6zM347 80q-1 3 -3 3t-3 -3t3 -3t3 3zM106 81q0 5 -9 -6l-7 -8l8 7q2 2 6 5q2 1 2 2zM390 95q1 5 0.5 5t-4.5 -4l-3 -3q-5 -6 -12 -2q-7 6 -1 -2q5 -6 -1 -6t-8 -4q-1 -2 1 -2 q6 0 14 6l5 1q0 -5 6 4q2 4 3 7zM117 88q-2 -1 -13 6q-6 4 -7 4q0 -1 2 -3q5 -7 11.5 -9.5t8.5 1.5q1 3 -2 1zM105 106q0 8 -4 1q-2 -4 1 -5q1 -1 2 0.5t1 3.5zM406 109q-3 5 -6 5q-1 0 2 -5t6 -5q1 0 -2 5zM99 116q0 4 -7 -4q-3 -4 -3 -4.5t4 2.5q6 4 6 6zM418 117 q-4 7 -4 -1q0 -4 3 -3q2 1 1 4zM434 130q3 5 2 5q-2 0 -4 -4q-1 -3 -5 -1t-4 0q0 -4 4 -3.5t7 3.5zM98 129q0 5 -5 5q-6 0 -1 -5l5 -5q1 3 1 5zM446 138q1 1 -0.5 2t-3.5 1q-8 0 -1 -4q4 -2 5 1zM462 150q4 6 2 6t-4 -4q-1 -3 -5 -1t-4 0q0 -4 4 -4t7 3zM494 172q0 5 -8 -5 q-3 -4 1 -1q7 5 7 6zM495 183q1 3 -3 3q-9 0 -2 -4q4 -2 5 1zM504 203q0 3 -9 -7l-7 -7l8 6zM508 217l2 5q-3 0 -6 -5q-4 -5 1 -8q1 1 2 1q-1 1 -0.5 3.5t1.5 3.5zM507 231q0 8 -4 1q-2 -4 1 -5q1 -1 2 0.5t1 3.5zM497 244q3 5 2 5q-3 0 -4 -3q-2 -4 -5 -2t-3 1q0 -2 1.5 -3 t4 -0.5t4.5 2.5zM477 266q1 3 -3 3q-9 0 -2 -4q4 -2 5 1zM449 293q-1 -1 -8 3q-7 6 -1 -2q2 -3 4.5 -4t4.5 0.5t2 3.5q0 1 -2 -1zM74 324q-3 5 -6 5l3 -5t6 -5zM413 324q4 4 -1 7h-2q2 -4 -1 -7q-4 -4 1 -7h2q-2 4 1 7zM375 347q-3 5 -10 5l-4 -1q1 -1 5 -1q2 0 8 -4z M78 352q0 6 -8 -4q-3 -4 -2.5 -4.5t4.5 2.5q6 4 6 6zM336 363q-2 -2 -8 2q-7 6 -1 -2q2 -3 5 -4t5 0.5t2 3.5q0 1 -1 1t-2 -1zM70 363l-1 5l-5 -5q-5 -5 1 -5q5 0 5 5zM312 367q1 1 -0.5 2t-3.5 1q-8 0 -1 -4q4 -2 5 1zM277 382q-1 3 -4 3q-1 0 -3 -3t3 -3q4 1 4 3zM77 383 q5 5 3 5t-4 -3q-2 -4 -8 -2q-7 3 -2 -2q4 -5 11 2zM65 395q1 3 -3 3q-9 0 -2 -4q4 -2 5 1zM240 397q-3 5 -6 5q-1 0 2 -5t6 -5q1 0 -2 5zM79 410q-1 3 -3 3t-3 -3t3 -3t3 3zM166 421q-4 6 -6 6t2 -6q3 -5 6 -5q1 0 -2 5zM148 428q0 2 -5 5q-5 4 -7 0q-1 -3 0 -2t3.5 0.5 t3.5 -1.5zM129 440q-2 -2 -7 -1.5t-7 2.5l5 2h2q7 0 7 -3zM109 443q0 -2 -5 -4q-2 -1 -3 -0.5t0 2.5q4 3 8 2zM80 436q-8 10 -11 5q-2 -4 -6 -2q-3 2 -1 -2t6 0q3 3 11 -3q11 -9 1 2zM92 442q-3 -3 -7 -3t-4 4q0 1 4 -1q3 -2 5 2t4 4t-2 -6zM163 456q3 1 5 2l2 -2 q-5 -2 -7 0zM105 18q0 4 -1 4q4 0 2 -3z" />
<glyph unicode="E" horiz-adv-x="465" d="M104 17l1 4q-5 0 -7 -10q0 -3 3 -2t1 3t2 5zM328 46q-2 2 -3 2t-3 -2q-3 -3 3 -3t3 3zM295 46q0 4 -5 4q-4 0 0 -4l4 -3q1 1 1 3zM156 52q0 5 -3 1q-2 -2 1 -3q2 -1 2 2zM183 54q0 4 -4 4q-5 0 -1 -4l5 -3v3zM105 196q-2 2 -3 2t-3 -2q-3 -3 3 -3t3 3zM282 260q0 5 -7 -4 q-3 -3 -2.5 -3t4.5 2q5 3 5 5zM265 257q4 4 3 4q-2 0 -4 -3q-1 -3 -5 -1t-4 0q0 -8 10 0zM244 256q0 4 -4 4q-5 0 -1 -4l4 -3q1 1 1 3zM119 283q2 2 -4 4q-4 1 -4 0.5t2 -2.5q4 -4 6 -2zM105 288q1 1 -0.5 1.5t-3.5 0.5q-9 0 -1 -3q3 -1 5 1zM90 475q-4 4 -6 4t2 -4t6 -4 t-2 4zM76 478q-2 2 -7 -3q-3 -3 -3 -3.5t4 1.5q6 4 6 5zM97 497q-2 2 -7 -3q-3 -3 -3 -3.5t4 1.5q6 4 6 5zM86 515q1 4 3 5.5t4 1.5t5 -2t5 -6q5 -9 1 -22q-4 -14 -2 -17q2 -7 44 -7q70 0 85 5q7 4 18 2q3 -1 11 -1t11 -1q14 -2 15 -3q4 -2 18 -2q15 0 19 -4t10 -4q7 0 7 -5 t-5 -5.5t-6 3.5q-1 5 -9 0q-8 -3 -18 -1q-24 4 -46 4q-12 0 -26 -2q-14 -3 -44 -3q-27 0 -31 -2h-5q-34 0 -42 6q-3 2 -8 0q-4 -3 -4 -21q0 -6 2 -38q1 -5 3 -57q3 -42 11 -42l2 1h2q4 2 6 -4q2 -5 46 -19q21 -7 66 -7h31l58 1v-8q0 -8 -13 -9q-14 -2 -17 -2 q-4 0 -40.5 -1.5t-37.5 -1.5q-4 0 -7 1q-7 2 -24 4q-15 2 -25 4q-14 4 -17 4q-9 2 -20 7q-9 6 -12 3t-1 -25q0 -6 0.5 -15.5t1.5 -22.5t1 -20q0 -8 0.5 -17t1 -14t0.5 -6l-2 -28q-2 -17 -2 -43t4 -29q0 1 4.5 3t11 4t9.5 2q8 0 11 3q6 4 59 4q60 0 72 -5q12 -4 26 -4 q17 0 28 -3q15 -4 41 -4q11 0 13 1q3 1 13 0.5t12 -2.5q1 -1 -1 -4.5t-6 -7t-7 -4.5q-6 -2 -28 -2q-36 0 -41 3q-5 2 -25 4t-29 6q-10 4 -34 4q-55 0 -61 -3q-4 -1 -7 -1q-4 0 -10 -2t-12 2q-2 1 -4 3h-1l2 -2q7 -7 -10 -11q-3 0 -6 -1q-7 -1 -15.5 -13t-8.5 -19q0 -3 -1 -4 t-3 0q-4 2 -10 4q-5 2 -7 10t1 13q2 4 0 7q-3 5 -1 29q2 44 2 94q0 52 -2 88q-1 11 -2.5 34.5t-1.5 29.5q-1 10 -2.5 31t-1.5 23q-2 28 -2 40t-3 18q-2 4 -2 13q0 20 5 25q4 4 4 4.5t-4 -2.5q-6 -4 -6 -1t-2 3q-9 -1 -16 7q-4 5 -3.5 6.5t5.5 5.5q9 6 13 5q6 -2 6 0 q-2 8 6 3q4 -2 4.5 -2t-2.5 3q-4 4 -2 12q0 2 1.5 7.5t2.5 7.5z" />
<glyph unicode="F" horiz-adv-x="349" d="M65 456q8 6 10.5 5.5t11.5 -9.5q11 -10 32 -10q4 0 46 2q4 0 11.5 0.5t10.5 0.5q39 0 48 -12q3 -4 18 -8q13 -3 13 -7q0 -3 2 -2t4.5 -1t3.5 -5t0 -5q-2 -3 -10 -3q-10 0 -22 4t-13 8q-2 3 -15 5q-20 3 -58 3q-17 0 -18 -1q-6 -3 -12 -3q-8 0 -16 -2q-6 -1 -24 6 q-18 8 -22 3q-1 -2 -3 -2.5t-3 0.5v-2q1 -1 2.5 -2t2.5 0t3.5 -3.5t4 -11t1.5 -10.5q0 -14 6 -52q7 -44 7 -53q0 -7 2 -7q8 0 16 -2q25 -5 44 -5q9 0 10 -3t27 -1q28 2 66 2q42 0 49 -7t5 -9q-3 -3 -60 -3q-19 0 -46.5 -0.5t-29.5 -0.5h-8q-58 0 -66 5q-3 2 -4 -3l1 -14 q3 -13 7 -81q4 -45 6 -48q1 -1 3 -18q2 -15 11 -39q9 -21 9 -29q0 -5 -1 -7q-2 -12 -7 -15q-5 -2 -12.5 6t-6.5 14q0 12 -2 18q-3 9 -3 13q0 1 -0.5 2t-0.5 2q-5 9 -8 50q-2 20 -3 21q-2 4 -9 95q-1 20 -5 31q-2 6 -2 17q0 12 -2 14t-2 15q0 14 -2 16q-3 3 -3 13q0 11 -6 31 q-5 18 -3 20t-2 7q-2 3 -4 22q-2 11 -0.5 14.5t8.5 7.5l8 6h-1q-7 0 -1 11zM181 432q0 6 -4 1q-1 -3 1 -4q1 -1 2 1zM207 428l-5 5q-4 4 -6 0v-2q1 1 3 0.5t3 -1.5zM217 427q2 2 -5 6q-5 3 -5.5 2.5t3.5 -4.5q6 -5 7 -4zM129 432q1 1 -2 1q-4 0 -7 -5q-3 -4 -2.5 -4t4.5 3 q2 2 4 3zM230 428q3 3 -1 1q-1 -1 -3 -2q-2 -2 -1.5 -3t5.5 -3q8 -4 6 -1q0 1 -2 2q-6 4 -4 6zM64 403q0 7 -4 2q-2 -4 1 -5q1 -1 2 1zM72 352q-1 2 -3 2q-1 0 -2 -2q-1 -3 2 -3q5 0 3 3zM88 272q-1 1 -3 2q-6 0 -2 -3q4 -2 5 1zM151 265h-6q-3 -1 -4 -3q1 -2 5.5 -0.5 t4.5 3.5zM231 265h-6q-3 -1 -4 -3q1 -2 5.5 -0.5t4.5 3.5zM89 205q0 6 -4 1q-2 -4 1 -5q2 1 3 4zM94 152q-4 5 -4 -1q1 -3 3 -3q2 1 1 4zM113 47q0 5 -3 1q-2 -4 1 -5q1 -1 1.5 0.5t0.5 3.5zM116 33q2 2 -4 4q-3 1 -3.5 0.5t1.5 -2.5q4 -4 6 -2z" />
<glyph unicode="G" horiz-adv-x="456" d="M193 477q10 10 17 10q10 -1 13 -4.5t2 -16.5q-1 -26 -9 -21q-2 1 -1 -1q4 -8 -13 -23q-5 -5 -9 -6.5t-6 1.5t-1 10q2 11 11 7q1 -1 2 0.5t0 3.5t-0.5 2.5t2.5 -0.5q3 -1 3 1q0 10 4 11l2 -1l-2 3q-6 7 -6 3q1 -2 -6 -8.5t-9 -4.5v-2q2 -3 -4 -7q-4 -3 -11 -12 q-6 -8 -8 -6q-2 1 -2 -1q0 -3 -9 -12q-8 -10 -13 -6l-1 -1q3 -4 0.5 -11t-7.5 -10q-4 -2 -4 -5q0 -4 -10 -24t-16 -36q-5 -13 -8 -13l-1 -7q0 -7 -2 -11q-4 -5 -11 -37.5t-7 -47.5q0 -33 12 -53q2 -4 2 -9q2 -13 24 -48t29 -36q5 -1 17.5 -7t14.5 -8q4 -4 12 -5q15 -3 18 -1 q4 2 10 2q11 0 48 15q9 3 25 19q14 14 17 13q2 -1 2 -0.5t-1 2.5q-2 5 1 5t16 12t19 21q7 11 10 11q2 0 2 5q0 2 5 5q4 1 4 9q0 7 5 15q4 7 6 29q2 20 -4 22q-1 1 -5 2.5t-6 1.5q-9 3 -14 3q-33 0 -45 -4q-6 -2 -22 -2h-35q-18 0 -20 7q-3 6 1 12q3 5 22 3q8 -1 21 -1 q16 0 23 3q5 3 31 7t37 4q29 0 41 -24q5 -13 5 -21t-8 -34q-14 -37 -16 -37t-4 2q-5 4 -1 -1q4 -4 -1 -12q-9 -13 -39 -43.5t-46 -42.5q-22 -16 -39 -19q-10 -2 -15 -5q-12 -6 -24 -6q-18 0 -48 13q-16 7 -17 7q-12 1 -12 5q0 2 3 1q3 -2 2 1q-2 4 -5 2q-3 -1 -15 9 l-5.5 5.5l-4 4t-0.5 1.5l-1 2q-4 3 -11 14.5t-7 15.5v1q1 2 -1 1h-1q-5 0 -15 29q0 2 -8 18q-6 12 -6 20q0 5 -1 6q-2 2 -2 14q0 36 6 57q1 4 2.5 9.5t2.5 10t1 5.5q6 25 16 46q5 13 6 16q2 7 6.5 14t6.5 6l2 10q0 11 6 19q7 10 13 21q6 12 10 16q1 1 5 9q19 36 28 39 q6 1 10 8q4 6 7 6q2 0 12 10zM216 475q0 6 -4 1q-1 -3 1 -4q1 -1 2 0.5t1 2.5zM200 462q1 1 -0.5 1.5t-3.5 1.5l-4 1l2 -2q4 -4 6 -2zM131 386q0 4 -6 -4q-4 -5 1 -1q5 3 5 5zM343 236q1 1 0 2t-3 1q-6 0 -1 -4q3 -1 4 1zM330 235q0 6 -7 -3q-6 -8 1 -2q6 4 6 5zM312 230 q1 1 -0.5 2t-2.5 1q-6 0 -1 -4q3 -1 4 1zM302 230q0 4 -6 -4t1 -2q5 3 5 6zM363 230q0 4 -6 -4t1 -2q5 3 5 6zM235 223l2 5q-3 0 -4 -3q-1 -2 -4 -1q-3 2 -3 0q0 -3 3.5 -3.5t5.5 2.5zM388 227q0 5 -7 -4q-6 -8 1 -2q6 4 6 6zM374 219q-1 1 -3 2q-6 0 -2 -3q4 -2 5 1z M386 210q-3 4 -7 0q0 -1 -1 -2q-6 -7 1 -2q5 4 7 2v2zM394 191q0 5 -7 -4q-4 -5 1 -1q6 4 6 5zM65 187q-1 2 -3 2t-3 -2q-1 -1 0 -2t3 -1t3 1t0 2zM65 178q-2 3 -2.5 2.5t-0.5 -4.5q1 -2 2 -3q3 1 1 5zM387 176q0 7 -4 2q-2 -4 1 -5q1 -1 2 0t1 3zM68 162q-3 3 -6 3 q-3 -1 -3 -2q2 -2 7 -2zM375 147q0 6 -4 1q-1 -3 1 -4q1 -1 2 0.5t1 2.5zM365 129q0 5 -3 1q-1 -3 1 -4q1 1 2 3zM85 114l-5 5l2 -5q4 -4 5 -4q2 0 -2 4zM325 83q-1 1 -3 2q-6 0 -2 -3q4 -2 5 1zM319 74q-1 1 -3 2q-6 0 -2 -3q4 -2 5 1zM121 52q0 4 -4 4t-1 -4l4 -4q1 2 1 4 zM151 36q-1 3 -3 3t-3 -3q1 -1 3 -2q2 1 3 2zM267 33q-1 3 -3 3t-3 -3q1 -1 3 -2q2 1 3 2zM162 32q0 5 -7 -4q-6 -8 1 -2q6 4 6 6zM190 15q-1 1 -3 2q-5 0 -1 -3q3 -1 4 1z" />
<glyph unicode="H" horiz-adv-x="444" d="M72 508q8 4 9 4q2 0 5 -8t2 -10q-2 -2 -2 -22q0 -16 -5 -33q-4 -14 -4 -25q0 -1 0.5 -22.5t0.5 -36.5q0 -71 4 -71h1q4 0 13 -7q12 -9 21 -12q10 -2 21 -2q37 0 61 8q47 14 62 14h2q1 -1 1.5 0t-0.5 2q-2 5 2 5q19 3 27 8q5 2 21 4q20 2 24 4.5t2 12.5q-1 6 -1 20 q0 1 0.5 4.5t0.5 5.5q0 47 -5 87q-2 11 -9 28q-8 16 -3 20q10 8 19.5 7t10.5 -10q1 -2 2 -8t1 -8q5 -23 5 -97q0 -19 -1 -28q0 -25 1 -26q3 -3 15 -1q13 1 15 -5q2 -5 -3.5 -10t-13.5 -4q-4 1 -5.5 -0.5t-0.5 -4.5t-3 -16q-5 -11 -6 -62q-2 -57 -3 -64q-2 -14 -2 -46 q0 -51 13 -51h2q5 2 7 -4q0 -1 1 -5.5t2 -5.5q1 -5 -5 -10q-8 -5 -14 2q-8 8 -6 11l-1 1q-2 -3 -8 1t-10 11q-5 9 -3 23q1 7 3 70q3 80 3 87q2 34 2 37q0 7 3 10q2 2 1.5 3t-3.5 -1q-4 0 -4 2q2 4 -1 5q-3 2 -2 -1q2 -4 0 -4q-24 -4 -31 -4q-16 -2 -18 -4q-14 -11 -38 -14 q-6 0 -6 -3t-8 -3q-10 0 -23 -5q-21 -7 -65 -9h-14q-20 0 -26 2q-8 3 -11 0.5t-3 -13.5q0 -8 -1 -10t-5 -1t-4.5 -0.5t0.5 -6.5q0 -2 1 -9.5t2.5 -19t2.5 -20.5q6 -47 7 -50q4 -26 4 -31q0 -7 6 -13q16 -16 16 -39q0 -4 -1 -6q-5 -21 -12 -21q-19 0 -25 66q0 5 -2 5t-2 8 q0 47 -6 56q-3 6 -3 13q0 8 -2 20q-9 59 -9 230q0 65 3 70q4 4 4 19q0 13 7 17zM343 477q1 1 0 2t-3 1q-5 0 -1 -3q3 -2 4 0zM79 469q1 1 -0.5 1.5t-3.5 0.5q-3 0 -5 -2q-1 -2 2 -2zM348 445l2 5q-2 0 -3 -3q-2 -4 -5 -2q-3 1 -3 0q0 -3 3.5 -3t5.5 3zM354 395q0 1 -4 5 q-3 3 -6 -1v-1q2 2 6 -2zM72 397l-2 3q-2 0 -3 -3q-1 -2 3 -2q3 0 2 2zM352 388l-2 3q-2 0 -3 -3t3 -3t2 3zM69 385q-1 2 -2 2q-2 0 -3 -2q-2 -3 3 -3q3 0 2 3zM354 367q0 3 -6 -4q-4 -5 1 -1q5 3 5 5zM370 306q1 1 -0.5 2t-2.5 1q-6 0 -1 -4q3 -1 4 1zM343 298q3 2 -1 3 q-4 2 -5 -3l3 -6l1 1q-2 3 2 5zM362 298q0 4 -4 4t-1 -4l4 -4q1 2 1 4zM354 296q0 4 -6 -4t1 -2q5 3 5 6zM312 289l-5 5l2 -5q5 -5 6 -5q2 0 -3 5zM74 274q4 4 2 4q-1 0 -5 -4t1 -7h1q-1 1 -0.5 3.5t1.5 3.5zM257 272q-1 3 -3 3l-2 -3q-1 -2 2 -2q4 0 3 2zM353 268q0 5 -3 1 q-1 -3 1 -4q1 1 2 3zM83 268q0 5 -8 -6l-5 -7l6 6zM88 260q2 3 0 2q-1 0 -3 -2l-2 -1q-5 -3 -1 -3t6 4zM86 251q0 2 -3 2t-4 -2q-1 -1 0 -2t3 -1q4 0 4 3zM349 243q1 1 0 2t-3 1q-5 0 -1 -3q3 -2 4 0zM74 239l2 5q-2 0 -3 -3q-2 -4 -5 -2l-3 1q0 -3 3.5 -3.5t5.5 2.5z M351 233l2 5l-5 -5q-3 -3 1 -6h1q-2 3 1 6zM75 225q-1 1 -3 2q-5 0 -1 -3q3 -1 4 1zM350 211q0 4 -4 4q-3 0 0 -4l4 -4v4zM350 187q0 5 -3 1q-2 -4 1 -5zM349 176q-1 2 -2 2q-2 0 -3 -2q-2 -3 3 -3q3 0 2 3zM347 151q0 5 -4 5q-3 0 0 -5l4 -4v4zM346 74l1 5l-5 -5 q-3 -3 1 -6h1q-2 2 2 6zM102 56q1 1 -0.5 2t-2.5 1q-6 0 -1 -4q3 -1 4 1zM98 42q3 5 -2 9q-3 3 -3.5 2.5t1.5 -3.5q3 -5 0 -8l-1 -4q1 0 5 4zM356 49q0 6 -3 2q-2 -4 1 -5q1 1 2 3zM103 31q0 5 -3 1q-2 -4 0 -5q2 0 3 4z" />
<glyph unicode="I" horiz-adv-x="198" d="M42 566q3 2 8.5 3t9.5 0.5t4 -2.5q2 -18 7 -32q12 -38 15 -91q0 -4 4 -20q2 -10 4 -28q2 -23 3 -24q2 -2 4 -24q4 -37 8 -56q8 -40 14 -119q2 -31 3 -32q8 -10 8 -76q0 -34 -4 -42q-3 -9 -9 -9q-7 0 -12.5 8.5t-5.5 21.5q0 17 3 17q4 0 4 12v5t0.5 4.5t0.5 3.5v1l-2 10 q-3 15 -4 22q-2 11 -4 16q-2 4 -4 43q-1 51 -6 79q-3 20 -4 26q-1 13 -5 20q-3 5 -6 36q-9 77 -11 83q-2 7 -4 25q-1 13 -0.5 16t5.5 3q7 0 -2 4q-8 3 -10 11q0 2 -3 17q-3 18 -3 19q0 7 -3 7q-2 -1 -4 5l-3 20q-1 14 4 17zM56 558q0 4 -7 -4q-3 -4 -3 -4.5t4 2.5q6 4 6 6z M60 548q0 6 -8 -4q-3 -4 -2.5 -4.5t4.5 2.5q6 4 6 6zM58 532q1 1 -0.5 2t-3.5 1q-8 0 -1 -4q4 -2 5 1zM67 518q0 4 -7 -4q-3 -4 -3 -4.5t4 2.5q6 4 6 6zM70 505q0 8 -4 1q-2 -4 1 -5q1 -1 2 0.5t1 3.5zM69 493q-1 3 -4 3q-1 0 -3 -3t3 -3q4 1 4 3zM85 418q0 3 -7 -5 q-3 -4 1 -1q6 4 6 6zM91 366q1 1 -3 3l-2 1q-7 3 -2 -2q5 -4 7 -2zM110 213q-3 5 -6 5l3 -5t6 -5z" />
<glyph unicode="J" horiz-adv-x="354" d="M217 473q10 2 12 2q12 0 19 -10q2 -3 3.5 -7t1 -7t-2.5 -3q-4 0 -2 -5q3 -13 -12 -15q-8 -1 -8 1q-1 2 -4 3q-4 0 -3 -3q2 -3 0 -12q-2 -10 -2 -24v-20q0 -18 20 -61q14 -28 14 -34q0 -4 2 -4q3 0 3 -8q0 -7 3 -7t6 -14q1 -3 1.5 -7.5t1.5 -7t1 -3.5q11 -33 14 -57 q1 -3 2.5 -13t2.5 -15q2 -7 2 -19q0 -13 -4 -29q-2 -8 -6.5 -16t-7.5 -7q-2 0 -9 5q-4 3 -4 2.5t4 -4.5q6 -7 8 -5q2 1 2 -1l-2 -6q-3 -4 -11 -8.5t-12 -4.5q-5 0 -8 3l-2 2l1 -2q3 -4 -1 -8t-14.5 -8t-14.5 -3q-4 2 -10 -2q-40 -22 -72 -22q-25 0 -44 13q-18 12 -18 25v1 q0 5 -2 8q-3 6 -3 16t4 14q3 5 15 5q8 0 9.5 -1t1.5 -6q0 -8 -5 -10q-6 -2 -4 -10q1 -6 6 -15q3 -6 3 -11h1q2 2 13 -3q12 -5 20 -5q16 0 41 13q32 14 34 14q1 0 3 -1q6 -2 19 8q13 9 15 9t12 7q11 7 12 6v1q-1 1 3 7q5 7 6 16q1 2 1 8q0 43 -9 59q-4 8 -4 15q-2 22 -6 22 q-2 0 -2 5q0 7 -6 21q-2 4 -3 8t-1 6v2l-4 5q-5 3 -5 6q1 3 -1.5 8.5t-4.5 7.5q-4 2 -4 9q0 4 -3 10q-1 2 -5 14q-6 18 -9 26q-10 26 -10 70v6q1 1 -1 1h-2q-3 -1 -3.5 -0.5t0.5 2.5q1 3 -1 1l-2 -2q-5 -5 -15 -5q-5 0 -17 -3q-5 -1 -17 1q-4 1 -58 6q-36 3 -36 20v4 q2 8 7 10h3q22 0 46 -11q16 -7 57 -7q11 0 12 1q12 4 19 4q13 0 13 3q-2 2 -3 1l3 11q7 15 17 18zM240 461q2 1 -3 3q-3 2 -3.5 1.5t1.5 -2.5q3 -3 5 -2zM240 452q0 4 -3 4q-4 0 -1 -4l4 -4v4zM233 444q4 4 2 4q-3 0 -4 -3t-5 -1q-2 1 -1 -0.5t2 -2.5q3 -5 5 -5t0 2t1 6z M213 444q0 4 -6 -4l1 -1q5 3 5 5zM120 429q0 3 -6 -4l1 -1q5 3 5 5zM151 426q0 2 -7 -6l-6 -6l7 5zM207 420q0 2 -5 -4l1 -1q4 3 4 5zM215 354q0 7 -3 1q-1 -2 1 -4q1 1 2 3zM231 298q-1 1 -3 2q-5 0 -1 -3q3 -1 4 1zM241 278q-1 1 -2 3l-2 2l2 -5l4 -4q2 0 -2 4zM255 255 q0 9 -4 1q-1 -2 1 -4q1 -1 2 0.5t1 2.5zM260 243v4l-4 -4q-3 -4 0 -4q4 0 4 4zM267 215l-5 5l2 -5q4 -4 5 -4q2 0 -2 4zM274 198q0 7 -3 1q-1 -2 1 -4q1 1 2 3zM275 185l-5 5l2 -5q4 -4 5 -4q2 0 -2 4zM280 147q0 7 -3 1q-1 -2 1 -4q1 1 2 3zM282 110q2 2 -3 3 q-3 2 -3.5 1.5t1.5 -2.5q3 -4 5 -2zM282 103q-1 1 -3 2q-5 0 -1 -3q3 -1 4 1zM279 91q-1 1 -3 2q-5 0 -1 -3q3 -1 4 1zM77 72q0 7 -3 1q-1 -3 -5 -1q-3 2 -2 -1q6 -6 9 -1q1 1 1 2zM262 70q-2 2 -8 2q-5 -1 -5 -2q2 -2 8 -2q5 1 5 2zM248 61l-2 3q-2 0 -3 -3q1 -1 3 -2 q4 0 2 2zM77 51q1 3 -0.5 3.5t-2.5 -2.5t2 -6q4 -3 6 0q1 2 -2 2t-3 3zM229 48q-7 9 -9 4q-2 -4 -5 -2q-4 2 -9 -5q-2 -2 -3 -5q1 2 3 3q6 6 9 4t5 2t8 -2l6 -6zM200 46q-1 1 -3 2q-5 0 -1 -3q3 -1 4 1zM88 40q1 2 1 3l-6 -3q-5 -3 0 -3q3 0 5 3zM180 37q2 2 -2 2 q-6 0 -2 -3q3 -1 4 1zM199 39q0 3 -6 -4l1 -1q5 3 5 5zM172 34q-2 3 -3 3t-2 -3q-2 -2 2 -2q2 1 3 2zM117 23q-4 -4 -11 3l-7 6l7 -8l7 -8q3 2 5 5t1.5 3.5t-2.5 -1.5zM155 22q-1 1 -3 2q-5 0 -1 -3q3 -1 4 1z" />
<glyph unicode="K" horiz-adv-x="434" d="M372 405q3 1 8 1q4 0 6.5 -4.5t0.5 -7.5q-3 -5 -2 -6q1 -3 -2 -10q-3 -6 -3 -9t-5 -1q-5 1 -10 -9q-2 -5 -15 -25q-9 -14 -9 -16q1 -2 -3.5 -7t-6.5 -4q-3 1 -1 -2t-2 -7q-3 -3 -13 -17q-2 -3 -4.5 -6.5t-4.5 -6.5l-1 -2l-10 -12q-9 -11 -11 -9q-1 -1 -2 -3q0 -4 -3 -4 q-4 0 -2 -2t-6 -8q-7 -5 -7 -8q0 -2 -9 -11q-9 -10 -7 -16q2 -10 3 -11q2 -4 2 -8q0 -3 6 -7q8 -5 24 -37q2 -4 21 -30q14 -20 13 -22q-1 -1 -0.5 -1.5t1.5 0.5q2 1 5 -2q4 -4 15 -17t11 -15q0 -3 14 -14q15 -12 13 -16q-1 -4 -11 -3t-13 5q-1 3 0 3l-5 5q-7 6 -11 6 q-3 0 -1 5q1 2 0 3.5t-3 0.5q-3 -2 -5 3q-2 6 -5 6t-1 2q3 3 -4 5q-6 2 -6 6t-3 4t-7.5 7.5t-3.5 10.5q2 3 -2 2t-7.5 4t-1.5 8l-1 1q-2 -1 -8 7q-5 7 -1 11l-1 1q-5 -4 -13 11q-8 16 -8 18l-2 4q-2 -2 -6 2q-4 3 1 8q4 4 -1 1q-4 -3 -7 1q-2 3 0 7q1 2 -1 1q-3 -2 -5 2 q-1 5 1 5q1 -1 2 0t1 3q0 11 -19 -15l-2 -2q-11 -15 -11 -17t-2 -2q-3 0 -5 -7t-9 -16q-6 -8 -6 -13q0 -1 -6 -15q-12 -29 -17 -42q-11 -31 -19 -31q-3 0 -9 3q-5 3 -4 10t-3 8q-5 2 -3 4t-3 14q-1 3 -2.5 6.5t-2.5 7t-1 4.5l-2 6q-2 7 -3 10q-2 6 -9 37q-2 8 -3 9t-2 3.5 t-1 3.5q-1 1 -1.5 4.5t-0.5 4.5q-1 1 -2 5.5t-1 5.5q-2 8 -4 15q-3 13 -6 21q-6 14 -6 19q-5 30 -11 51q-1 1 -2 5t-1 5t-1 5t-2 5t-2 6t-2 8q-3 11 -2 12q2 2 -2 7q-3 4 -3 29v10q0 24 11 32q5 3 11 -3q5 -4 5 -16q0 -10 -1 -17q-2 -28 -5 -31l-2 -2h1q4 2 4 -3q0 -2 1 -7 v-1q2 -18 9 -43q1 -4 3.5 -12t2.5 -10q5 -26 21 -75q2 -7 5 -17l3 -10q0 -1 2 -9.5t4 -13.5q6 -18 6 -19q0 -4 3 -7t3 -9q0 -4 3 -10q2 -4 0 -7q-1 -3 3 -7l5 -1v1l1 2q0 1 2 11q2 9 5 9t3 4q0 6 3 10l5 8q2 7 5 12.5t6 4.5q2 0 3 1q-1 1 1.5 8t7 12.5t5.5 4.5q3 -1 1 2 q-1 3 4 10q3 3 4 5t0 2t1.5 3t6.5 8q10 11 11 10l3 7q2 13 -1 24q-1 7 5 10q10 5 11 -7q1 -6 -3 -6t-2 -2q1 -1 7 -1q3 1 3 2q-3 2 4 6q4 2 6 1q3 -1 1 2t1.5 6.5t6.5 1.5l1 1q-1 2 2 9t5 7q1 0 16 17t17 16t1 1q-2 4 3 10q8 10 8 11q2 4 5 2q2 -1 1 1q-1 1 1.5 7.5t6.5 12 t5 4.5h1q1 1 0 3q-2 3 2 7t2 4t7 11q8 10 8 15q0 4 4 6q5 5 8 12q4 9 9 11zM376 387q-2 2 -3 2l-2 -2q-2 -2 2 -2q2 1 3 2zM57 381q4 4 2 4q-1 0 -5 -4t0 -5h2q-2 2 1 5zM55 360q-2 2 -3 2t0 -1q2 -2 -2 -6h1q5 4 4 5zM356 355q3 4 -2 1q-1 -1 -5 -4l-4 -2l1 -1q1 1 2 1 q4 1 8 5zM58 348q-2 2 -3 2t-3 -2q1 -1 3 -2q2 1 3 2zM60 334l1 4l-4 -4q-4 -4 0 -5h2q-2 2 1 5zM338 327q1 1 -0.5 2t-2.5 1q-7 0 -1 -3q3 -1 4 0zM62 322q0 3 -6 -3q-4 -4 1 -1t5 4zM64 311q-2 2 -3 2t-3 -2q1 -1 3 -2q2 1 3 2zM319 300q2 2 2 3q-7 0 -8 -6l1 -3q2 -1 1 1 q-2 3 4 5zM312 285q1 1 -0.5 2t-2.5 1q-7 0 -1 -3q3 -1 4 0zM308 280q0 3 -6 -3q-4 -4 1 -1t5 4zM294 266q-1 1 -3 2q-7 0 -1 -3q2 -1 4 1zM289 257q6 4 3 4q-1 0 -5 -4t-6 -2t-4 -2v-1q2 2 7 -1l2 -1q-3 3 3 7zM77 243q-3 3 -5 3q-1 0 2 -3q4 -4 5 -4q2 0 -2 4zM273 238 q0 4 -7 -3q-3 -3 -2.5 -3t4.5 2q5 3 5 4zM83 223q-4 4 -5 4q-2 0 2 -4t5 -4q2 0 -2 4zM256 219q-1 1 -3 2q-7 0 -1 -3q2 -1 4 1zM248 213v4q-5 -4 -11 -9l-6 -7q1 1 5 4q9 8 11 6q1 -1 1 2zM240 189q0 7 -4 1q-2 -2 1 -4q1 -1 2 0.5t1 2.5zM224 185q-1 1 -3 1q-4 0 -5 -1 t1 -1q4 -1 7 1zM217 179q-1 2 -7 -2q-1 -1 1 -1h2q4 1 4 3zM199 154q0 7 -4 1q-1 -1 1 -3q1 -1 2 0t1 2zM195 145q-1 1 -3 2q-7 0 -1 -3q2 -1 4 1zM271 139q-3 6 -5 6v-3q-1 -3 -1 -5q-1 -4 0 -5t3 1q3 1 3 6zM112 132q0 3 -6 -3l1 -1q5 3 5 4zM279 125q-2 -2 -6 1t-1 -1 q3 -3 6 -3t3 3q0 2 -2 0zM174 103q2 2 -2 2q-8 0 -2 -3q2 -1 4 1zM298 95q0 5 -3 1q-1 -2 1 -4q1 1 2 3zM123 92q0 3 -4 3t-1 -3l4 -4q1 2 1 4zM311 82q-4 4 -5 4q-2 0 2 -4q3 -3 5 -3q1 0 -2 3zM162 78q3 3 2 3q-2 0 -4 -2t-5 -1h-1q-1 -1 1 -3q4 -4 6 -4t0 2t1 5zM130 73 q0 3 -7 -4q-4 -4 1 -1q6 4 6 5zM134 62q1 1 0 1.5t-4 1.5t-3 0.5t2 -2.5q3 -3 5 -1zM153 58q3 3 2 3q-2 0 -5 -3q-4 -4 -7 -2l-1 -1q3 -3 7 -3l3 1q-2 2 1 5zM340 45q-4 4 -5 4q-2 0 2 -4q3 -3 5 -3q1 0 -2 3zM145 44q-1 1 -3 2q-7 0 -1 -3q2 -1 4 1zM347 35q-1 1 -3 1 q-4 0 -6 -2l5 -1q3 1 4 2z" />
<glyph unicode="L" horiz-adv-x="386" d="M78 414q5 1 12.5 -1t8.5 -4l1 -3v-5q0 -5 6 -27q5 -18 2 -25q-10 -18 -10 -51v-52q0 -41 -1 -45q-1 -2 -3 -22q0 -3 -1 -13t-2 -13q-1 -9 -1 -36q0 -59 4 -62q1 -1 -1 -8q-3 -6 0 -6q7 0 10 -1t36 -3q9 -1 32.5 -1.5t32.5 -0.5q5 0 12.5 -0.5t10.5 -0.5q14 0 20 2 q3 2 24 4q9 1 27 4q6 1 17 1q2 0 6.5 -0.5t5.5 -0.5q6 0 8 -6q2 -5 5 -5q2 0 2 -4q0 -7 -22 -4q-6 2 -6 4q1 1 0.5 1t-2.5 -1q-6 -5 -30 -7q-2 0 -6 -0.5t-9 -1.5t-8 -1q-16 -2 -87 -2q-72 -1 -83 -5t-16 2q-5 7 -4 16q1 4 1 12q0 1 -2 29q-2 16 -2 18q0 1 2 23q0 4 1 17.5 t2 18.5t2 18.5t1 17.5q2 26 2 85v41q0 6 -0.5 17t-0.5 13q0 14 -5 34q-3 13 -3 23q0 14 11 17zM91 398q1 1 0 2t-3 1q-7 0 -1 -3q3 -1 4 0zM91 392q-1 1 -3 1q-4 0 -6 -2l5 -1q3 1 4 2zM94 383q-1 1 -3 2q-7 0 -1 -3q2 -1 4 1zM100 372q0 7 -3 1q-1 -1 1 -4q1 1 2 3z M104 362q0 2 -6 -4l1 -1q5 3 5 5zM94 353q-2 2 -3 2l-2 -2q-2 -2 2 -2q2 1 3 2zM97 342q-2 -2 -8 0l-5 2l6 -4q6 -3 7 0v2zM94 330v4q-1 0 -1 -1q0 -3 -4 -6q-4 -2 -4 -7q0 -7 -2 -9l-1 -2l3 2q5 4 3 6t2 2q6 0 0 2q-3 1 0 3q4 2 4 6zM93 279q0 1 -5 4l-3 1q2 -2 -2 -6 q-3 -4 1 -1q5 4 7 2t2 0zM92 269q0 9 -4 1q-1 -1 1 -3q1 -1 2 0t1 2zM91 250q-2 2 -3 2l-2 -2q-2 -2 2 -2q2 1 3 2zM96 233q0 3 -9 -6l-7 -7l8 6zM94 214q-2 2 -3 2l-2 -2q-2 -2 2 -2q2 1 3 2zM88 175l-1 1q-1 2 -2 2l-1 -1l-1 -2q-2 -2 2 -2q2 1 3 2zM84 161q4 4 2 4 q-1 0 -5 -4q-3 -3 1 -5h1q-2 2 1 5zM84 133q3 3 2 3q-2 0 -5 -3t1 -6h1q-1 1 -0.5 3t1.5 3zM84 115q0 3 -8 -5l-5 -6l7 5zM83 93q-1 1 -3 1q-5 0 -6 -1t1 -1zM83 84q0 7 -3 1q-2 -1 1 -4q1 1 2 3zM82 74q-1 1 -3 2q-7 0 -1 -3q2 -1 4 1zM86 66q0 7 -3 1q-1 -1 1 -4q1 1 2 3z M84 58q-4 4 -5 4q-2 0 2 -4t5 -4q2 0 -2 4zM86 48q-3 4 -8 -1l1 -1q4 3 6 1zM319 36q-1 1 -3 2q-7 0 -1 -3q2 -1 4 1zM84 35q0 3 -6 -3l1 -1q5 3 5 4zM94 33q-1 1 -3 2q-7 0 -1 -3q2 -1 4 1zM287 33q-1 1 -3 2q-7 0 -1 -3q2 -1 4 1zM306 32q-4 4 -5 4q-2 0 2 -4t5 -4 q2 0 -2 4zM123 31q1 2 0.5 2t-4.5 -2q-5 -3 -1 -3t5 3zM111 29q-1 1 -3 1q-3 0 -5 -2l4 -1zM167 27q0 8 -10 0q-2 -1 -3 -2l1 -1q6 5 9 2t3 1zM250 27q0 7 -3 1q-1 -1 1 -3q1 -1 1.5 0t0.5 2zM131 26l-2 2q-1 0 -3 -2q1 -1 3 -2q4 0 2 2zM222 25q0 9 -4 1q-2 -2 1 -4 q1 -1 2 0.5t1 2.5zM98 25q-1 2 -7 -2q-1 -1 1 -1h2q4 1 4 3z" />
<glyph unicode="M" horiz-adv-x="549" d="M423 420q4 4 11.5 5t8.5 -3q4 -18 6 -46l1 -13q1 -23 2 -50q2 -61 3 -70q4 -45 6 -77q4 -65 12 -86q5 -12 5 -16q0 -2 0.5 -2.5t1.5 0.5q3 1 12 -6.5t9 -11.5q0 -3 -2 -6t-4 -4t-4 1q-1 1 -2.5 2t-2.5 0q-2 -1 -11 2.5t-12 6.5q-1 1 3 6l-1 1q-5 -3 -8.5 -1t-2.5 6 q2 4 -2 8q-10 12 -10 83q0 20 3 23l1 3l-2 -1q-6 0 -6 34q0 24 -2 24q-3 0 -5 67q0 7 -0.5 18t-1 18t-0.5 9q-3 15 -3 25q-2 16 -4 16q-3 0 -3 -2q0 -1 -1 -3v-2l-1 -2q-5 -15 -32 -69q-4 -8 -10.5 -21.5t-7.5 -15.5q0 -1 -6.5 -14.5t-10.5 -21.5q-13 -23 -18 -36 q-5 -11 -14.5 -21t-14.5 -10q-3 0 -9 4q-5 3 -12 15.5t-8 19.5q0 7 -3 12t-5 20t-4 19q-2 5 -1 6t-1 7q0 2 -1 5.5t-2 5.5q-2 11 -13 35q-29 63 -37 63q-3 0 -7 -12t-9 -22q-6 -12 -6 -13q0 -2 -5 -12t-5 -15q0 -4 -4 -10q-3 -5 -22.5 -54.5t-20.5 -53.5q0 -1 -2 -7t-4 -10 q-3 -7 -6 -19q-4 -14 -10 -31q-10 -26 -10 -32q0 -8 -3 -8q-4 0 -4 -6q-2 -35 -9 -46t-7 -14q0 -4 -7 -4t-7 3t-5 3q-7 0 2 16q6 10 6 19q0 10 2 10q3 0 5 8q3 13 6 19q5 9 3 11q-1 1 3 8l3 7h-1q0 1 13 36q7 20 14 41q1 2 2 7t1 6q2 8 5 8q2 0 1 3q-2 4 1 5q4 2 4 10 q0 7 4 11t4 6t8 20q7 16 7 23q0 6 6 6l5 2q-1 1 3 19q1 4 2 8.5t2 7.5t1 4q0 3 6 11t6 14q0 1 7 20q5 15 4 16t6 6q9 6 15 2q15 -8 50 -79q13 -26 20 -67q5 -27 9 -36q7 -17 7 -22q0 -3 7 -3t21 27q15 28 15 32q0 5 4 5q5 0 3 3t6 18q7 14 7 16t9.5 20.5t11.5 20.5q3 3 6 10 t8 12q3 3 3 7t11 25t15 25zM430 405q3 3 2 3t-5 -4t-7 -2l-1 -1q3 -3 7 -3l3 1q-1 1 -0.5 3t1.5 3zM442 390q-2 2 -7 -3q-3 -3 -2.5 -3.5t4.5 1.5q5 3 5 5zM442 362q-2 2 -7 -3q-3 -3 -2.5 -3.5t4.5 1.5q5 3 5 5zM251 327q-1 1 -3 2q-7 0 -1 -3q2 -1 4 1zM160 283q-2 2 -3 2 l-2 -2q-1 -1 0 -2t2 -1t2.5 1t0.5 2zM317 192q-3 4 -7 0q0 -1 -1 -2v-1q5 3 7 1q1 -1 1.5 0t-0.5 2zM312 183q0 3 -6 -4q-4 -4 1 -1t5 5zM456 118q-4 4 -5 4q-2 0 2 -4t5 -4q2 0 -2 4zM459 93q-4 4 -5 4q-2 0 2 -4t5 -4q2 0 -2 4zM458 83q-1 1 -3 2q-8 0 -2 -3q3 -1 5 1z M472 60q1 1 -0.5 2t-2.5 1q-9 0 -1 -4q2 -1 4 1zM485 48q0 5 -3 1q-1 -2 1 -3q1 -1 1.5 -0.5t0.5 2.5zM70 32q0 3 -5 0l-2 -2q-1 -2 1 -2l2 1q4 1 4 3z" />
<glyph unicode="N" horiz-adv-x="387" d="M59 436l1 2v2h-1q-9 0 -1 -4h1zM66 421l-1 1h-1q-2 -2 -2 -3v-1q1 0 3 2zM61 459q0 3 -6 -4l1 -1q5 3 5 5zM64 451q0 3 -6 -4q-4 -4 1 -1t5 5zM85 341q0 5 -5 -2v-3q5 3 5 5zM90 298q1 1 -0.5 1.5t-3.5 1.5l-4 1l2 -2q4 -4 6 -2zM106 170q-4 4 -5 4q-2 0 2 -4t5 -4 q2 0 -2 4zM313 461q5 3 10 3q7 -1 7 -12q0 -6 -3 -18q-3 -10 -4 -25q0 -3 -1 -15.5t-2 -16.5q0 -2 -3 -32q-4 -57 -5 -63q-4 -39 -7 -82q0 -7 -0.5 -16.5t-1 -15.5t-0.5 -8q-2 -8 1 -11q1 -1 -1 -19q0 -4 -1 -10t-1.5 -10.5t-0.5 -6.5q0 -15 -13 -10q-1 0 -4 2l-4 1 q-2 0 -4.5 4.5t-1.5 5.5t-0.5 1.5t-3.5 0.5q-4 0 -6 5q-2 7 -7 13q-6 8 -4 11v2q-2 -2 -11 10q-11 17 -23 30q-1 1 -4.5 5t-4.5 6q-3 6 -13 20q-9 13 -5 17q5 5 -3 3q-5 -1 -8.5 4t-1.5 9v1h-3q-4 -1 -6 3t0 8q1 2 -1 1t-9.5 7t-7.5 11q0 1 -9 15t-9 16q0 1 -7 10 q-6 7 -6 11q0 2 -4 4t-4 6t-7 18t-7 17q0 1 -0.5 2t-1.5 0q-3 -2 -5 5q-4 9 0 13v2q-1 0 -4 -3l-3 -3q0 -4 1 -12t1 -12q0 -8 3 -17q1 -3 3 -23q2 -19 3 -20t3 -20q3 -30 7 -47q9 -46 11 -100q2 -26 3 -27q7 -9 7 -70q0 -21 -3 -29q-6 -17 -18 0h-1q-8 4 -8 9q0 9 -1 15 q0 3 -1 10.5t-2 10.5t-2 12t-1 11q0 3 -1 12t-2 12q-3 18 -4 26q-2 17 -3 18t-3 19q0 5 -0.5 16.5t-1.5 15.5q0 4 -2 14.5t-2 14.5t-1 15t-1 15q-1 5 -2 17t-1 15q0 4 -1 10.5t-1.5 12t-0.5 8.5q-1 6 -3 51q-2 36 -5 43q-2 4 0 10v1q0 6 -2 6q-3 -2 -5 10l-1 11q-2 12 3 15 q2 1 6.5 2t8 0t3.5 -2q0 -2 0.5 -6t1.5 -6q4 1 7 -4.5t3 -16.5q0 -14 5 -14q8 0 24 -30q19 -35 19 -42q0 -1 13.5 -19.5t16.5 -21.5q2 -2 10 -18t11 -19q2 -2 14 -22q11 -18 14 -18t1 -6q-1 -5 8 -9t9 -9t8 -11q21 -21 21 -29q0 -2 8 -12q7 -9 7 -12q0 -5 5 -8q3 -1 3 0 q-2 4 0 4q3 0 3 14t2 28q0 2 1.5 11.5t2.5 14.5q1 4 2 14t1 14q1 4 2 15.5t1 15.5q3 35 6 66q0 2 3 31q2 23 3 26t3 38q1 32 7 36zM321 448q1 1 0 1.5t-4 1.5l-4 1l2 -2q4 -4 6 -2zM314 388q1 1 -0.5 2t-2.5 1q-9 0 -1 -4q2 -1 4 1zM100 383q-1 1 -3 2q-7 0 -1 -3q2 -1 4 1z M108 376q-4 4 -5 4q-2 0 2 -4t5 -4q2 0 -2 4zM308 315q1 1 -0.5 2t-2.5 1q-9 0 -1 -4q2 -1 4 1zM305 296q-3 4 -3 -1q0 -1 1 -2.5t2 -0.5q2 1 0 4zM158 292q0 4 -6 -3q-3 -3 -3 -3.5t4 1.5q5 3 5 5zM168 268q-1 1 -3 2q-7 0 -1 -3q2 -1 4 1zM239 172q-4 4 -5 4q-2 0 2 -4 l5 -5zM293 161q1 1 0 2t-3 1q-9 0 -1 -4q2 -1 4 1zM264 134l-1 1q-1 2 -2 2l-3 -3q1 -1 3 -2q2 1 3 2z" />
<glyph unicode="O" horiz-adv-x="440" d="M285 397q2 2 11 -2q2 -1 5 -2l6 -2t4 -1q5 -2 3 -5q-1 -2 1 -1q2 2 11 -3.5t15 -12.5q6 -6 9 -6q4 0 8 -8q3 -7 8 -9q4 -1 8.5 -10.5t6.5 -17.5q3 -11 3 -49q0 -18 -2 -22t-4 -17q-1 -9 -4 -20q-6 -29 -26 -68l-6 -14q0 -1 -12 -23q-3 -5 -9 -16.5t-8 -15.5 q-7 -12 -9 -12t-6 -8q-4 -6 -6 -6h-1q-1 -1 0 -3q1 -4 -3 -4t-4 -3q1 -2 -6.5 -7t-17.5 -9q-8 -2 -38 -2q-32 0 -51 9q-10 5 -15 7t-5 1l-6 1q-6 4 -11 4q-6 1 -17 7t-11 8q0 3 3 1t2 1q-1 1 -2.5 1.5t-2.5 -0.5t-2 -1q-7 0 -21.5 18.5t-22.5 38.5q-4 16 -4 46q0 16 2 42 q1 7 2.5 21t1.5 16q2 14 4 21q0 1 1 5t2 5q3 9 6 14q5 8 5 14t5 14q6 10 9 19q4 11 20 18q14 7 24 7q8 1 13 -3t1 -9q-2 -3 -1.5 -3.5t5.5 -0.5l5 1q-1 1 3.5 5t10 7t7.5 2t1 1q-2 3 2.5 7.5t7.5 2.5q3 -1 2 0q-3 4 6 7q7 2 10 -1q2 -2 2.5 -1.5t-1.5 2.5q-4 4 4 9 q14 8 54 12q14 2 15 3zM286 390q-3 3 -5 3q-1 0 2 -3q4 -4 5 -4q2 0 -2 4zM244 382q4 4 2 4q-1 0 -5 -4q-3 -3 1 -6h1q-1 1 -0.5 3t1.5 3zM257 383q-1 1 -3 2q-7 0 -1 -3q2 -1 4 1zM284 380q-1 1 -3 2q-7 0 -1 -3q2 -1 4 1zM305 374q1 3 -2 3q-2 0 -70 -8q-2 0 -12 -6 q-8 -5 -10 -5q-1 0 -5 -2t-8 0l-1 -1q1 -1 -6.5 -9t-10.5 -8q-4 0 -9 -6q-5 -7 -8 -5h-1q-1 -1 0 -3q1 -4 -3 -4q-5 0 -7 -3q-1 -3 2 -1q2 2 2 0.5t-2 -4.5q-3 -6 -8 -2q-6 5 -2 -1q4 -4 -1 -13q-11 -19 1 -29q8 -8 4 -22q0 -1 -4 1t-7.5 5.5t-3.5 5.5q0 5 -8 9t-6 6 q3 2 -3 8q-5 6 3 16q18 24 18 28q0 3 -5 3h-3q-6 0 -6 -2q2 -2 -2 -4t-14 -20q-11 -19 -14 -21l-1 -2q2 0 -2 -9q-4 -10 -3 -11t-1 -1q-4 0 -4 -7q0 -5 -4 -35q-3 -24 -3 -45q0 -42 15 -69q6 -10 17 -21.5t15 -11.5t8 -4q3 -3 12 -5t16 -7q23 -14 62 -14h5q33 1 33 3 q0 1 -1 1q-2 2 4 4q8 3 20 18q21 29 21 36h-1q0 2 2 4q3 1 12.5 19t9.5 21q0 4 4 8t13.5 30.5t11.5 35.5q0 1 2.5 9.5t3.5 13.5q4 13 4 35q0 18 -3 27l-1 9l-1 2q-2 1 -4 10q-2 8 -10 12q-9 4 -7 10q1 3 0 3.5t-4 -0.5q-6 -1 -12 9q-8 10 -12 11q-6 2 -5 5zM323 369q1 1 0 2 t-3 1q-7 0 -1 -3q3 -1 4 0zM208 363q4 4 2 4t-3 -2q-2 -4 -5 -2l-3 1q0 -2 3.5 -2.5t5.5 1.5zM343 361q0 3 -6 -3q-3 -3 -3 -3.5t4 1.5q5 3 5 5zM184 348q-3 3 -5 3q-1 0 2 -3q4 -4 5 -4q2 0 -2 4zM354 341q-5 5 -7 5q-1 0 0 -1l4 -4q5 -5 6 -5q2 0 -3 5zM127 343q0 2 -6 -4 l1 -1q5 3 5 5zM143 341q-1 1 -3 2q-7 0 -1 -3q2 -1 4 1zM136 334q-4 4 -5 4q-2 0 2 -4t5 -4q2 0 -2 4zM115 330q3 3 2 3t-5 -4q-3 -3 1 -5h1q-2 2 1 6zM367 326q-4 4 -5 4q-2 0 2 -4q3 -3 5 -3q1 0 -2 3zM374 317q-1 1 -3 2q-7 0 -1 -3q2 -1 4 1zM97 305q4 4 2 4t-3 -2 q-1 -3 -5 -1q-3 2 -3 0t3.5 -2.5t5.5 1.5zM85 279q0 3 -6 -3q-4 -4 1 -1t5 4zM362 194l-2 2q-1 0 -3 -2q1 -1 3 -2q4 0 2 2zM82 103q-3 1 -6 1q-3 -1 -4 -3q1 -1 5.5 -0.5t4.5 2.5zM86 91q-1 1 -3 2q-7 0 -1 -3q2 -1 4 1zM95 79l-2 2q-1 0 -3 -2q-1 -1 0.5 -2t2.5 -1t2 1 t0 2zM122 57q-1 1 -3 2q-7 0 -1 -3q2 -1 4 1zM154 48q-1 3 -7 -1q-1 -1 -0.5 -1.5t2.5 0.5zM214 33q0 2 -6 -4l1 -1q5 3 5 5z" />
<glyph unicode="P" horiz-adv-x="330" d="M124 492l17 14l31 -2q30 -2 32 -5t13 -9q35 -18 35 -25q-2 -1 6 0q9 1 10 -6q2 -6 5 -6h2q8 0 8 -28q0 -6 -1 -8q-5 -27 -10 -39q-2 -4 -2.5 -6t0.5 -2v-2q0 -1 -1.5 -3t-2.5 -4q-6 -7 -8 -5q-1 1 -1 0.5t1 -2.5q2 -6 -3 -14q-5 -9 -11 -4q-5 4 -1 -1q3 -6 -1 -10 q-7 -4 -9 -2q-3 2 -2 0l2 -3q3 -5 -7 -11q-13 -7 -62 -11q-12 -2 -26 -12q-14 -11 -19 -7q-6 5 -5 8.5t9 12.5q9 11 33 16q36 8 43 10q8 2 23 19t22 31q3 6 5 9.5t3 2.5h1q3 0 5 39v10t-1 5.5t-3 3t-6 0.5q-7 1 -26 14t-19 17v1l-2 -1q-4 -4 -16 0q-3 1 -13 1q-29 0 -29 -6 q0 -3 -7 -5q-6 -2 -16 -13.5t-10 -15.5q0 -5 -3 -5t-5 -8q-2 -9 -7 -20q-4 -9 -9.5 -41.5t-5.5 -44.5v-4q1 -2 3 -18q2 -15 5 -18t3 -9t5 -18q1 -2 5.5 -13t6.5 -16t5 -13t4 -10q3 -6 3 -11q0 -4 9 -26q10 -24 10 -26q0 -7 5 -15q3 -4 10 -24q19 -51 29 -56q7 -4 6 -11 q-1 -4 -5 -2q-2 1 -3.5 -1t-0.5 -7q2 -11 3 -12q3 -3 -3 -5q-5 0 -21.5 15t-16.5 20q0 3 -4 1q-5 0 -15 13t-10 19t-2 6q-1 0 -5.5 8.5t-6.5 13.5q-4 16 -15 42q-9 22 -11 34q-2 15 -7 33q-4 14 -6 54q-2 41 -8 54q-4 11 -6 30q-1 15 0.5 18t6.5 3q2 0 6 0.5t5 0.5q4 0 6 18 q2 20 8 30q7 12 5 12v1q0 2 1 4.5t3 5.5q7 10 7 14q0 5 4 6q5 3 7 10t19 22zM173 490q1 3 -3 3q-8 0 -1 -4q3 -1 4 1zM126 486q0 4 -6 -5l-3 -5l4 3q5 5 5 7zM118 466q3 3 -4 5l-4 1l3 -3q3 -5 5 -3zM275 424q0 9 -4 2q-2 -4 1 -5q1 -1 2 1zM270 395q3 4 2 5l-7 -7 q-5 -6 0 -6q3 1 3 2q-1 1 2 6zM73 355q0 4 -4 4t-1 -4l5 -5v5zM64 337q0 9 -4 2q-2 -4 1 -5q1 -1 2 1zM84 250q-4 6 -5 6q-2 0 2 -6q3 -5 5 -5q1 0 -2 5zM90 231q-6 -4 -11 0q-6 5 -3 0q3 -6 9 -9q5 -2 5 -1q-2 4 1 9q2 3 -1 1zM74 225q-3 5 -5 5q-1 0 2 -5q4 -6 6 -6 q1 0 0 1.5zM99 218q0 6 -3 1q-2 -4 1 -5q1 -1 1.5 0.5t0.5 3.5zM93 206q0 5 -4 7.5t-6 -0.5q-2 -2 0 -6q3 -7 5 -19q0 -5 4 -5q3 0 1 -2q-3 -3 3 -10t1 -4l-2 1l3 -6q6 -8 8 -6q1 1 2 4.5t0.5 6t-1.5 2.5q-6 0 -8 21q0 4 -7 8q-6 3 -3 3q4 0 4 5zM119 145l4 4l-5 -1 q-1 0 -2 -1q-6 -4 -9 -2l-3 1q0 -4 7 -7q5 -2 5 -1q-2 4 3 7zM99 135q0 6 -3 1q-2 -4 1 -5q1 -1 1.5 0.5t0.5 3.5zM133 131q0 5 -7 -5q-3 -4 1 -1l3 3q3 2 3 3zM121 92q-2 -4 -9 3q-5 4 -1 -1q8 -10 11 -4q2 4 -1 2zM147 95q-1 -1 -3 -0.5t-4 2.5q-5 4 -1 -1q6 -9 9 -4 q1 1 1 3t-2 0zM149 77q4 5 3 5q-2 0 -11 -12q-2 -2 -4 -5h1q6 7 9 4q1 -1 1.5 -0.5t-0.5 1.5q-2 2 1 7zM150 45q2 3 -3 3q-8 0 -1 -4q3 -1 4 1z" />
<glyph unicode="Q" horiz-adv-x="471" d="M167 366q7 2 13 0q6 -4 6 0q0 1 1 0l3 -3q3 -5 11 -3q6 1 14.5 -4.5t8.5 -10.5q1 -2 2 -3q23 10 37 10q11 0 17 -1q47 -3 60 -13q9 -7 30 -16q20 -9 33 -23q13 -13 13 -15q0 -1 2 -7q2 -4 2 -17q0 -21 -6 -44.5t-12 -23.5q-2 0 -2 -5q0 -7 -20 -27q-8 -8 -13 -14 q-19 -22 -25 -22h-2q-3 1 -2 0q2 -3 -19 -22q-20 -19 -17 -22q4 -4 2 -7v-2q2 2 9.5 -4t7.5 -10q0 -3 3 -3t10 -11t10 -11q2 0 2 -4t8 -12t7 -11q-2 -4 3 -4q4 0 6 -5t6 -7q5 -2 5 -4q0 -4 -4 -2h-1q3 -3 8 -3q4 0 6 -4t6.5 -7t6.5 -2q1 1 3 -1.5t4 -5.5q5 -8 0 -13 q-12 -12 -30 5l-7 8q2 0 -13 13q-14 14 -14 16q0 5 -4 6q-2 1 -3.5 1.5t-0.5 1.5h1q0 9 -26 32q-2 2 -18 22l-13 15l-11 -11q-11 -11 -17 -11q-5 0 -5 -3t-20 -10q-15 -7 -30 -7h-12q-25 2 -27 3q-4 2 -11 2q-5 0 -17 8q-10 7 -15 7q-4 0 -8 13q0 3 -9 10q-9 9 -8 12v3 q-2 -1 -6 3t-2 4t-2 4t-2 8q0 2 -1 3q-2 -1 -6 3t-5 9q0 2 -6 18q-9 25 -9 51v5q1 2 1.5 7.5t0.5 8.5q2 11 12.5 38.5t13.5 27.5q4 0 2 4q-1 4 3 4q5 0 3 4q0 9 40 55q5 5 18 14.5t20 11.5zM202 348q3 3 3 4q-1 2 -8 -3q-6 -5 -13 -2q-6 2 -20 -5q-13 -7 -13 -11 q0 -6 -10 -4q-3 0 -1 -3t-3.5 -9t-8.5 -5v-2q2 -3 -9 -14q-7 -6 -14 -20q-5 -10 -7 -10t-8 -18q0 -1 -6 -13q-5 -11 -7 -26l-3 -17v-1q0 -9 12 -51q22 -62 51 -78q28 -16 56 -16l19 2q-1 1 4 4q2 1 5 2q19 8 35 21l12 10l-10 9q-10 10 -8 13q1 2 0 2.5t-3 -0.5 q-3 -1 -4.5 1.5t-0.5 6.5q0 3 -3 1q-2 -2 -12 6t-10 12q0 2 -3 2q-4 0 -10 9q-8 11 -4 16q4 6 11 6q9 0 24 -16q4 -4 14 -15.5t14 -15.5q14 -16 16 -17q4 -2 2 -6v-1q2 0 17 14.5t21 21.5q9 11 12 9q2 -1 2 1q0 5 13 16q11 10 21 22q21 26 24 44q2 6 3 8q2 2 2 9q0 13 -3 26 q-2 6 -5 8q-4 2 -4 3q0 5 -26 23q-15 10 -13 14v1q-2 -2 -18 5q-17 7 -26 9q-5 1 -18 1q-57 0 -57 -12q-1 -1 -1 -2q-2 2 -11 -2t-11 -2q-1 1 -1.5 0t0.5 -2q1 -3 -5 -7q-6 -3 -4 -12q5 -12 12 -22q8 -11 9 -14t-4 -5h-1q-5 0 -15 8t-10 12v1v2q-2 -2 -6.5 1.5t-4.5 7.5 q0 6 -5 9q-8 6 -5 15q3 3 5 3q3 0 3 1q-2 5 2 6q8 5 9 2q0 -1 -2 -3q-4 -4 2 -8l1 1q-3 3 -1 6q2 2 2 5t14 10q11 7 11.5 8t-4.5 3q-6 4 -3 7zM216 344q-6 6 -8 6q-1 0 0.5 -1.5l4.5 -4.5q5 -5 7 -5q1 0 0 1zM155 344q-1 1 -3 2q-7 0 -1 -3q2 -1 4 1zM297 344q-1 1 -3 2 q-7 0 -1 -3q2 -1 4 1zM274 343q-3 1 -6 1q-4 -1 -5 -3q1 -1 6 -0.5t5 2.5zM310 342q-4 5 -4 -2q0 -1 1 -2t2 0q3 2 1 4zM247 338q-2 2 -7 2l-2 -1q2 -2 6 -2zM218 334l-2 2q-1 0 -3 -2q-3 -3 3 -3q2 0 2.5 1t-0.5 2zM332 333q-2 2 -6.5 2t-5.5 -1l4 -2h2zM207 327l-1 3 q-2 -1 -4 -3q-4 -4 1 -4q4 0 4 4zM224 327q0 3 -9 -6l-6 -6l7 6zM371 310q0 6 -4 1q-2 -2 1 -4q1 -1 2 0t1 3zM395 295q-2 2 -3 2t-3 -2q1 -1 3 -2q3 1 3 2zM184 289q-1 1 -3 2q-8 0 -2 -3q3 -1 5 1zM98 274q-4 4 -6 4t2 -4t6 -4t-2 4zM91 266q0 4 -6 -4q-4 -4 1 -1t5 5z M411 264q-3 4 -8 -2v-1q2 1 4.5 1.5t3.5 -0.5v2zM83 244q3 3 -3 3q-9 0 -1 -4q2 -1 4 1zM71 227q0 5 -3 1q-2 -2 1 -4q1 1 2 3zM406 221q0 5 -6 -3q-4 -4 1 -1t5 4zM395 194q3 3 -3 3q-8 0 -2 -3q3 -2 5 0zM67 172q3 3 -3 3q-9 0 -1 -4q2 -1 4 1zM372 168q6 2 1 2 q-2 0 -4 -1.5t-2 -3t2 -2.5t1 1t2 4zM71 163q0 5 -3 1q-2 -2 1 -3q1 -1 1.5 0t0.5 2zM356 152q4 4 2 4q-1 0 -5 -4t0 -6h2q-1 1 -0.5 3t1.5 3zM234 139q-1 1 -3 2q-7 0 -1 -3q2 -1 4 1zM80 128q-1 1 -3 2q-8 0 -2 -3q3 -1 5 1zM247 125q-2 -2 -9 3q-5 4 -5.5 3.5t4.5 -5.5 q8 -8 11 -2zM86 115q-2 2 -3 2l-2 -2q-2 -2 2 -2q3 1 3 2zM304 98l-1 1q-1 2 -2 2l-3 -3q1 -1 3 -2q3 1 3 2zM281 90l-2 2q-1 0 -3 -2q1 -1 3 -2q4 0 2 2zM105 84q-1 1 -3 2q-7 0 -1 -3q2 -1 4 1zM291 85q-2 2 -3 2t-3 -2q-3 -3 3 -3t3 3zM297 59q-1 1 -3 2q-7 0 -1 -3 q2 -1 4 1zM250 53q3 3 -3 3q-9 0 -1 -4q2 -1 4 1zM241 49q-2 2 -3 2t-3 -2q-3 -3 3 -3t3 3zM150 44q0 3 -4 3t-1 -3l4 -4q1 2 1 4zM216 37q6 6 4 6q-1 0 -6 -5q-4 -4 -7 -2q-2 1 -2 0q0 -2 1.5 -2.5t4.5 0.5t5 3zM340 22q-4 4 -5 4q-2 0 2 -4t5 -4q2 0 -2 4zM367 -10l-1 1 q-1 2 -2 2l-3 -3q1 -1 3 -2q3 1 3 2zM378 -25q-4 4 -5 4q-2 0 2 -4t5 -4q2 0 -2 4zM401 -44q3 3 -3 3q-7 0 -1 -3q3 -1 4 0z" />
<glyph unicode="R" horiz-adv-x="499" d="M99 422q1 4 13 4q13 0 24 -4q18 -5 23 -6q19 -2 26 -15q2 -4 4 -4q10 0 48 -36q11 -11 24 -30t13 -24q0 -1 -1 -1t2 -5q4 -6 4 -34q0 -19 -2 -26q-6 -22 -12 -21q-2 1 -1 -1q2 -3 -7.5 -8t-12.5 -3q-2 1 -1 -1t-2 -4t-10 -4q-1 0 -3.5 -1t-6 -3t-6.5 -3q-11 -5 -22 -7 q-2 0 -8 -1t-8 -2t-9.5 -2t-9.5 -1q-14 -2 -15 -6q1 -2 4 -2q6 0 20 -7t16 -7l12 -7q9 -5 11 -4q4 2 5 -1q2 -2 12 -4q7 -1 13 -7q4 -4 9 -4t23 -9q16 -8 21 -8q10 0 85 -47q16 -9 17 -9q2 0 13 -9t13 -7q1 1 2 -0.5t4 -5.5q6 -8 11 -8q8 0 15.5 -4.5t6.5 -8.5q-2 -4 -2 -12 q0 -7 -4 -9h-1q-5 0 -18.5 9t-13.5 13q1 1 -1 2t-4 1q-5 0 -8 3q-2 3 -16.5 12t-16.5 9q-3 0 -1 4t-2 4t-17 9q-33 22 -78 39q-27 11 -32 14l-8 5q-33 7 -50 16q-35 19 -44 19q0 -1 -11 3q-17 7 -17 0q0 -2 1 -4q12 -24 12 -31q0 -2 6 -16t5 -18q0 -3 1 -4q1 1 4 -2.5 t5.5 -9t2.5 -8.5t13 -18t10 -17q-4 -2 -4 -9q0 -6 -6 -8q-6 -1 -14.5 6.5t-6.5 11.5v2q-2 -1 -7.5 3t-5.5 7q0 2 -6 10q-5 7 -4 10q2 3 -1 2q-2 -1 -5 1t-5 8t-3 14q0 2 -4 12t-3 10t-1.5 6.5t-6.5 17.5q-21 56 -24 99q-2 23 -12 54q-6 16 -6 34q0 10 1.5 11.5t9.5 1.5 q11 0 13 2q3 3 6 25q2 9 7 23q7 19 7 21q2 14 8 11q2 -1 1 1q-2 4 0 8zM111 415l-1 1q-1 2 -2 2l-3 -3q1 -1 3 -2q2 1 3 2zM161 402q-3 3 -6 3l-3 -1q3 -3 6 -3zM144 399q-12 2 -21 2q-11 0 -13 -2q-2 -4 -2 -8t-6 -16q-4 -8 -4 -18q0 -5 -4 -9t-2 -4q1 0 0.5 -4t-2.5 -10 q-4 -12 -4 -53q0 -28 2 -34q3 -9 1 -11v-2q0 -10 9 -32q3 -8 -1 -12q-3 -4 1 -1q5 3 6 2q2 -2 2 1t20 3q32 0 53 9q1 0 8.5 3t11.5 5q16 6 19 9t15 9q19 10 25 33q3 15 0 22q-4 9 -2 13q2 3 -4 9t-3 11q0 3 -1 3q-1 -1 -4.5 3t-6 9t-2.5 7t-4 2q-5 0 -3 5q0 3 -1 3 q-4 -2 -14 8q-3 3 -24 21l-10 7.5t-7 5.5q-4 4 -4 2h-1q-1 0 -3.5 1t-4.5 2q-6 4 -15 6zM171 399q-4 4 -5 4q-2 0 2 -4l5 -5zM189 393q0 4 -6 -4q-4 -5 1 -1q5 3 5 5zM192 378q-4 4 -5 4q-2 0 2 -4t5 -4q2 0 -2 4zM210 376l1 4q-1 0 -3 -3q-1 -3 -5 -1q-3 2 0 -3t6 -5 q2 0 0 2q-1 1 -0.5 3t1.5 3zM90 362q-1 1 -3 2q-5 0 -1 -3q2 -1 4 1zM255 326q-2 2 -6 2l-3 -1q2 -2 7 -2zM77 322l-5 5l2 -5q4 -4 5 -4q2 0 -2 4zM55 310q2 2 0 2q-7 -1 1 -9q4 -3 1 1q-3 5 -2 6zM74 278l-5 5l2 -5q4 -4 5 -4q2 0 -2 4zM268 238q0 4 -6 -4t1 -2q5 3 5 6z M243 215q-1 1 -3 2q-5 0 -1 -3q2 -1 4 1zM83 197q4 4 2 4l-5 -5q-4 -4 0 -6h2q-1 1 -0.5 3.5t1.5 3.5zM114 179q0 5 -3 1q-1 -3 1 -4q1 1 2 3zM135 173q0 5 -3 1q-2 -3 0 -4q1 -1 2 0.5t1 2.5zM98 164q-4 4 -5 4q-2 0 2 -4l5 -5zM106 155q0 3 -5 1l-2 -2q-1 -2 0 -2.5t3 0.5 q4 1 4 3zM192 143l-5 5l2 -5q4 -4 5 -4q2 0 -2 4zM102 141q1 1 -0.5 2t-2.5 1q-5 0 -1 -3q3 -1 4 0zM311 92q-1 1 -3 2q-5 0 -1 -3q2 -1 4 1zM120 88q0 5 -3 1q-1 -3 1 -4q1 1 2 3zM136 70q-4 4 -5 4q-2 0 2 -4t5 -4q2 0 -2 4zM380 50q0 6 -4 1q-1 -3 1 -4q1 -1 2 0t1 3z M435 18q1 1 0 2t-3 1q-6 0 -1 -4q2 -1 4 1z" />
<glyph unicode="S" horiz-adv-x="336" d="M129 393q6 1 17 1q18 0 21 -5q9 -11 -3 -23q-6 -6 -8.5 -2.5t3.5 10.5q0 1 1 2q-1 -1 -3 -1.5t-3 0.5t-10 1q-7 0 -15 -4t-10 -9q-2 -4 -5 -4t-13 -12q-5 -6 -12 -13q-5 -5 -14 -22q-4 -8 -5 -9t-3 -7t-3 -7q-3 -3 -3 -13v-2q0 -17 16 -31q1 -1 4 -4.5t4 -4.5 q12 -14 54 -33q20 -9 28 -15t11 -6q2 0 9 -5q2 -1 11 -6q8 -2 31 -18q1 -1 7 -5l9 -6q24 -15 34 -33q3 -6 3 -13q0 -21 -15 -42q-11 -16 -17 -14q-3 1 -2 0l2 -3l3 -3q-1 0 -3 1q-4 1 -4 -1q0 -3 -14.5 -9.5t-23.5 -7.5q-12 -2 -15 -5q-7 -6 -11 -2q-1 1 0 3t-1 1 q-3 -3 -2 -4t0 -2t-4 -1.5t-6.5 -1t-8.5 -0.5t-8.5 1t-4.5 3t0 4h-10l-4 -1l1 -1q3 1 5 -1q3 -2 4 -1q2 2 2 -1q0 -5 -31 -3q-8 0 -19.5 5.5t-13.5 9.5q-1 5 4 9.5t12 4.5q8 0 10 -5q1 -7 31 -7q14 0 21 1q33 2 33 4l-1 1q0 2 14.5 8.5t18.5 6.5h1q2 -2 2 0q-1 2 3.5 7.5 t8.5 6.5q6 1 26 32l1 5q-2 -2 -3.5 3.5t0.5 8.5q2 2 0 2q-1 0 -3 -1q-4 -1 -4.5 0t0.5 3q0 2 -1 3q-2 -2 -4 2t-6 5q-6 2 -4 5q1 3 -3 3q-3 0 -3 3q0 1 -1 1.5t-2 -0.5q-3 -1 -6.5 2t-1.5 5q1 1 0.5 1.5t-1.5 -0.5q-3 -2 -8 3q-4 4 -24 14q-19 9 -25 14q-9 7 -28 13 q-32 13 -46 25q-7 7 -17 13t-10 9q0 2 -3 2t-11 14.5t-9 21.5q-1 4 3 14q1 1 1.5 3t1 3.5t1.5 3t1.5 3t0.5 2.5q16 40 24 40q1 1 2 3q1 5 8.5 15.5t9.5 10.5q2 -1 2 2q0 2 2 2q3 0 2 3q-2 3 7 9.5t13 5.5q2 -1 3 0t0 2q-1 2 0 2.5t5 1.5zM133 387q0 5 -6 -3q-3 -4 1 -1 q5 3 5 4zM141 385q2 2 -2 2q-7 0 -1 -3q1 -1 3 1zM159 385v2q-1 0 -5 -2l-1 -2q4 0 6 2zM118 374q2 3 -1 5l-2 1l1 -1q1 -3 -3 -5q-2 -2 -1 -3q3 0 6 3zM101 356l-5 2l-4 -1q2 -2 5 -2t4 1zM88 343q2 4 1 4l-4 -4q-3 -4 1 -5h1q-1 1 1 5zM54 271q-1 1 -3 2q-5 0 -1 -2 q2 -2 4 0zM66 245q-4 4 -7 4h-3t0 -1t3 -1l6 -3zM79 232q0 4 -2 1q-1 -1 0 -3q1 -1 1.5 -0.5t0.5 2.5zM106 204q2 2 -2 2q-7 0 -1 -3q1 -1 3 1zM129 196q-1 1 -3 2q-5 0 -1 -2q2 -2 4 0zM138 196q0 5 -6 -3q-3 -4 1 -1q5 3 5 4zM174 172q-1 1 -3 2q-7 0 -1 -3q2 -1 4 1z M200 162q-3 3 -4 3t2 -3l4 -4q2 0 -2 4zM251 127q1 1 -2 1t0 -4l6 -4q-1 1 -2 3zM262 118q0 5 -3 1q-1 -1 1 -3q1 -1 1.5 -0.5t0.5 2.5zM278 82q0 5 -6 -3q-3 -4 1 -1q5 3 5 4zM265 65l-4 4q-2 0 2 -4l4 -4q2 0 -2 4zM248 50l1 4q-1 0 -3 -2t-3 -1t-2 1t-1 -1q0 -2 3 -2.5 t5 1.5zM255 51q0 3 -6 -5l-5 -5l6 4zM241 40v4q-1 0 -3 -3q-3 -3 0 -5l2 -1q1 3 1 5zM238 31l-4 4q-3 2 -5 -1v-1q1 1 5 -1q2 -1 2.5 -1.5t1.5 0.5zM225 34q0 4 -5 -3q-3 -4 1 -1zM98 19l-4 4q-3 2 -5 -1v-1q1 1 5 -1t4 -1zM203 19q-2 1 -5 1q-3 -1 -4 -3q1 -1 5 -0.5t4 2.5 zM114 10q-9 11 -15 3q-2 -3 2 -4q3 -1 5 1q3 3 8 -1v1zM121 13q2 2 -2 2q-7 0 -1 -3q1 -1 3 1zM167 14q-3 -3 -7 -1h-3q1 -1 0 -2t-2 0q-4 2 -4 -2t4 -1q6 3 7 2l-1 -2l1 -1q1 0 3 2q5 5 5 6t-3 -1zM129 10q-2 5 -7 -1q-3 -4 1 -1q1 1 3 1.5t3 -0.5v1z" />
<glyph unicode="T" horiz-adv-x="457" d="M43 378q4 3 16 1q15 -2 15 -5q0 -1 -1 -2.5t-0.5 -1.5t2.5 2q4 2 18 2q16 0 46 -3q20 -2 35 -2h10q12 1 25 1q10 0 16 -1q4 -1 36 -3q7 0 25 -0.5t24 -1.5q12 -1 33 -1q5 0 14 -3q2 0 14 -3q5 -1 14 -4q5 -2 1 -7q-3 -4 1 -1t13 -1q19 -9 9 -17q-4 -4 -9 0q-1 1 -11 6 q-8 4 -6 6h-1q-2 -1 -11 1q-14 6 -48 7q-6 1 -23 1.5t-24 0.5q-14 1 -29 1h-8q-8 1 -14 1h-27q-26 -1 -30 2q-4 2 -5 0q-2 -3 1 -2l2 1q4 0 7 -43q2 -22 6 -40q2 -9 5 -31q0 -4 2.5 -19t3.5 -23q1 -6 2 -14.5t2 -14.5t1 -9t0.5 -9.5t1.5 -9.5t2 -10t1 -9q3 -25 6 -38 q1 -5 5 -36q2 -15 3 -16t-1 -7t-4 -10q-2 -5 -7 -3q-7 1 -10 20q-1 3 -2 11.5t-1 10.5q-1 4 -1.5 13.5t-0.5 13.5q0 1 -1.5 14.5t-2.5 20.5q-4 24 -4 25q-4 32 -6 36q-2 2 -2 12q0 2 -0.5 6t-1.5 9t-1 8q-2 16 -2 22q0 8 -4 22q-3 10 -5 29q-2 14 -4 19q-5 6 -2 31 q0 2 0.5 5.5t0.5 4.5q0 9 -34 10q-7 1 -12 1q-60 3 -64 6t-3.5 9.5t4.5 8.5zM58 372q0 7 -3 1q-1 -1 1 -4q1 1 2 3zM50 366q0 4 -3 4q-4 0 -1 -4l4 -3v3zM73 366l-2 2q-1 0 -3 -2q1 -1 3 -2q4 0 2 2zM91 367q0 5 -6 -3q-5 -6 1 -2q5 3 5 5zM107 365q-1 -1 -3 -0.5t-3 1.5 q-2 1 -3 2q2 -1 3 -3q4 -5 7 -2q1 1 1 2q0 2 -2 0zM126 362q1 1 -0.5 2t-2.5 1q-7 0 -1 -3q2 -2 4 0zM143 363q-4 -3 -7 0q-4 3 -5 -1l1 -1q1 1 5 -1q3 -2 7 2q3 4 -1 1zM218 362q3 3 1 3q-1 0 -4 -3q-3 -5 0 -6q1 1 2 1q-2 2 1 5zM153 359v4l-4 -4q-2 -3 1 -3t3 3zM184 360 q2 2 -2 2q-8 0 -2 -3q2 -1 4 1zM232 360q-1 1 -3 2q-7 0 -1 -3q2 -1 4 1zM262 357q-3 3 -4 3t2 -3l4 -4q2 0 -2 4zM284 359q0 5 -6 -3q-3 -4 1 -1q5 3 5 4zM299 359q0 4 -5 -3q-3 -4 1 -1t4 4zM320 357q3 3 2 3q-2 0 -3 -2t-4 -1q-2 1 -2 0q0 -2 2.5 -2t4.5 2zM328 354 q0 7 -3 1q-1 -1 0 -3q1 -1 2 0t1 2zM369 351l-2 2q-1 0 -3 -2q1 -1 3 -2q4 0 2 2zM380 348q-2 2 -3 2l-2 -2q-2 -2 2 -2q2 1 3 2zM164 329l-1 4q-1 -2 -3 -4q-2 -3 0 -3q4 0 4 3zM166 318q-2 2 -3 2l-2 -2q-2 -2 2 -2q2 1 3 2zM163 310q-1 1 -3 2q-7 0 -1 -3q1 -1 4 1z M166 298q1 1 0 1h-3q-3 0 -1 -2l2 -2q5 -5 5 -4.5t-2 2.5q-3 3 -1 5zM175 268l-4 4q-3 2 -5 0v-2q2 2 6 0zM176 254q1 1 0 2t-2 1q-7 0 -1 -3q1 -2 3 0zM180 216l-4 4q-2 0 2 -4l4 -4q2 0 -2 4zM182 199q-1 1 -3 2q-7 0 -1 -3q2 -2 4 1zM186 191q0 5 -6 -3q-3 -4 1 -1 q5 3 5 4zM186 168q4 4 2 4q-1 0 -5 -4q-3 -4 1 -5h1q-2 2 1 5zM186 155q-4 4 -5 4q-2 0 2 -4q3 -3 5 -3q1 0 -2 3zM190 143q1 1 0 1q-5 0 -1 -5q1 -2 2 -3q4 -3 1 1q-4 4 -2 6zM193 127q1 1 -0.5 1.5t-3.5 1.5l-1 -1q4 -3 5 -2zM197 96q2 2 -2 2q-7 0 -1 -3q1 -1 3 1z M198 84q-4 8 -4 -1q0 -1 1 -2.5t2 -0.5q3 2 1 4zM202 60l1 4q-1 0 -3 -3q-1 -2 -4 -1q-2 1 -2 0q0 -2 3 -2t5 2zM208 28q-2 2 -5 2h-3t0 -1q2 -2 6 -2q3 0 2 1zM203 20q0 7 -3 1q-2 -1 1 -4q1 1 2 3z" />
<glyph unicode="U" horiz-adv-x="442" d="M350 362q8 5 14 5q10 0 12 -11.5t2 -64.5q0 -51 -7 -92q-3 -14 -5 -38q-5 -41 -16 -71q-13 -34 -35 -56t-78 -22q-16 0 -31 3q-29 5 -45.5 15t-34.5 32q-3 4 -6.5 8t-8 9t-5.5 7q-8 10 -26 43.5t-20 43.5q-2 12 -5 24q-2 12 -2 34q0 47 4 68q1 8 3.5 14.5t6 9t5.5 1.5 l1 2v2q-1 5 6.5 11t14.5 6q4 0 8 -4.5t2 -8.5t-5 -4q-4 0 -6 -6t-5 -4q-2 1 -2.5 0.5t0.5 -2.5q2 -5 -1 -8q-12 -15 -12 -62q0 -58 26 -109q14 -26 14 -29l27 -31q26 -28 44 -36q17 -7 27 -7t17 1q28 2 40 2l14 2v1q1 2 3.5 3t4.5 2q10 4 16 12q5 7 8 4q1 1 1 3q-3 5 4 15 q7 11 7 15q0 6 7 24q11 28 14 70q2 21 7 28q4 6 4 56q0 24 -1 30q-2 14 2 14q1 1 5 -2q3 -2 2.5 -1.5l-3.5 3.5q-6 6 -4 12v5q-2 -2 -8 2q-5 5 -5.5 13.5t4.5 13.5zM87 333q0 3 -6 -4l1 -1q5 3 5 5zM370 324q0 6 -4 1q-2 -2 1 -3q1 -1 2 0t1 2zM64 231q0 6 -4 1q-2 -2 1 -4 q1 -1 2 0.5t1 2.5zM67 210q2 2 -4 4q-4 1 -4 0.5t2 -2.5q4 -4 6 -2zM69 193q-1 1 -3 2q-8 0 -1 -3q2 -1 4 1zM360 187q0 6 -4 1q-2 -2 1 -4q1 -1 2 0.5t1 2.5zM359 177q-2 3 -2.5 2.5t-0.5 -4.5q0 -1 0.5 -2t1.5 0q3 2 1 4zM81 162q0 5 -7 -4q-4 -4 1 -1q6 4 6 5zM348 115 q4 4 2 4t-3 -3t-5 -1q-3 1 -3 0q0 -3 3.5 -2.5t5.5 2.5zM344 103q-3 -3 -8 0q-3 2 -3.5 1.5t2.5 -3.5q3 -5 9 -1l4 4zM315 47q5 6 -9 -3l-5 -5q1 1 4 2q9 5 10 6zM157 43q0 5 -3 1q-2 -2 1 -4q1 1 2 3zM294 38q3 3 2 3q-3 0 -6 -3t1 -6h2q-1 1 -0.5 3t1.5 3zM211 25l-4 2h-2 q-6 0 -6 -2q1 -1 6 -1t6 1zM268 24q-4 4 -6 4q-1 0 0 -1l3 -3l5 -5zM240 22q-1 1 -3 2q-9 0 -1 -3q2 -1 4 1z" />
<glyph unicode="V" horiz-adv-x="407" d="M44 439q9 2 14 -1q3 -2 10.5 -17.5t9.5 -24.5q4 -22 28 -65q30 -60 30 -70v-2q1 -2 3 -6.5t4 -8t6 -11.5q13 -26 13 -33q0 -4 3 -3q3 0 20.5 -30t25.5 -48q0 -1 2 -4t5 -8t5 -9q11 -19 6 -18q-1 0 -4 2h-1q4 -4 11 -4q4 1 4 2q-5 6 -1 6l3 4v3q2 17 5 26q0 1 2 6t5 13.5 t5 15.5q10 28 14 28h1q4 -2 6 0q2 3 -1 2t-6 2q-3 4 2 23q1 5 5.5 17.5t5.5 17.5q4 17 6 19q4 4 5 12q2 10 4 10t2 5q0 7 7.5 32.5t12.5 33.5q5 9 6 16t6.5 12.5t10.5 5.5t10 -5q6 -6 3 -13q-4 -8 -8 -11q-6 -4 -8 -12t-7 -23l-16 -48q-3 -7 -8.5 -24.5t-7.5 -21.5 q-22 -57 -25 -84q0 -6 -2 -10q-1 -2 -3 -13q-2 -14 -5 -26q-1 -3 -4 -33q-3 -35 -5 -42.5t-7 -9.5q-5 -1 -10 1q-4 2 -7 2t-5 12q-2 14 -10 27q-9 15 -4 21q3 5 2.5 5t-2.5 -2q-9 -7 -11 10q-2 6 -10 18q-8 11 -8 17q0 5 -3 6q-2 2 -6 8.5t-3 8.5q0 2 -3 2q-1 0 -1.5 1 t0.5 2q1 2 -2 4q-4 2 -7 10q-1 3 -5 11l6 5l6 6l-7 -4l-6 -4q-1 2 -2 3h-1.5t-0.5 1q-5 9 -4 12q2 4 -2 4q-2 0 -6.5 9t-3.5 11q2 2 -2 6q-5 5 -8 14q-4 11 -6 13q-3 3 -3 7t-4 12q-4 7 -14 26t-18 34.5t-8 16.5q0 2 -10 25t-13 27q-2 4 -6.5 17.5t-4.5 16.5q0 1 5 3z M55 428q1 1 -0.5 1.5t-3.5 1.5q-3 1 -1 -1q4 -4 5 -2zM73 395q0 3 -7 -5l-6 -6l7 5zM341 376q0 3 -6 -3q-4 -4 1 -1t5 4zM82 360q-4 4 -5 4q-2 0 2 -4t5 -4q2 0 -2 4zM333 357l-2 2q-1 0 -3 -2q-1 -1 0.5 -2t2.5 -1t2 1t0 2zM88 350q0 2 -6 -4q-4 -4 1 -1t5 5zM333 345 q3 3 1 3q-1 0 -4 -3q-4 -4 0 -6h2q-2 3 1 6zM94 342q0 2 -6 -4l1 -1q5 3 5 5zM326 325q0 4 -4 4t-1 -4l4 -3q1 1 1 3zM107 314q-5 5 -7 5q-1 0 0 -1l4 -4q5 -5 7 -5q1 0 0 1zM318 305q4 4 2 4t-4 -3q-1 -2 -4 -1t-3 0q0 -2 3.5 -2t5.5 2zM285 201q0 4 -4 4t-1 -4l4 -3 q1 1 1 3zM156 201q-2 2 -3 2q-2 0 0 -2q1 -1 -2 -5q-4 -6 2 -1q5 4 3 6zM282 192q0 7 -3 1q-1 -1 1 -4q1 1 2 3zM171 174q-4 8 -4 -1q0 -1 1 -2.5t2 -0.5q2 2 1 4zM184 152q-4 4 -5 4q-2 0 2 -4t5 -4q2 0 -2 4zM267 148q-2 2 -3 2t-3 -2q1 -1 3 -2q2 1 3 2zM196 144 q0 3 -6 -3q-3 -3 -3 -3.5t4 1.5q5 3 5 5zM211 107q-1 -1 -6 2q-4 3 -1 -1q7 -6 9 -1q0 2 -2 0zM257 99q-4 4 -5 4q-2 0 2 -4t5 -4q2 0 -2 4zM235 60q1 1 0 2t-3 1q-7 0 -1 -3q3 -1 4 0z" />
<glyph unicode="W" horiz-adv-x="549" d="M491 490q-2 3 4 4l7 -2q3 -2 3 -24q0 -14 -2 -14q-3 0 -1 -2t-2 -10q-9 -17 -11 -28q0 -7 -4 -7q-3 0 -3 -6q0 -5 -3 -11t-3 -12q0 -5 -4 -13q-3 -6 -8 -21q-11 -37 -13 -39q-3 -3 -2 -3q2 0 0 -4q-4 -8 -5 -13q-2 -10 -4 -12q-3 -3 -9 -28l-3 -10q-3 -10 -5 -17 q-8 -24 -8 -29q0 -1 -1 -5t-2 -9.5t-2 -9.5t-2 -9t-2 -8v-3q2 -5 -6 -30q-3 -12 -3 -17q0 -10 -4 -16t-2 -8q1 -1 -2.5 -3t-8.5 -3t-8 0q-8 1 -16.5 16.5t-12.5 34.5q-3 7 -4 9q-2 2 -2 6q0 16 -6 28q-2 4 -1 5q2 2 -1 2q-2 0 -2 3q0 10 -7 31q-2 7 -1 8t-2 5q-6 6 -6 21 q0 6 -2 6t-4.5 10t-1.5 13q1 2 -1 2q-1 0 -3.5 4t-5 11t-3.5 13q0 2 -0.5 4t-1.5 4v2q-2 2 1 4q2 1 -1 2q-4 2 -3 0q0 -2 -1 -3q-4 0 -7 -29q-3 -25 -4 -25q-2 0 -4 -19q-3 -15 -5 -21q-10 -29 -14 -58q-2 -12 -3 -13q-3 -2 -10 -55q-4 -41 -17 -73q-4 -9 -9 -9q-19 0 -19 7 q0 3 -4 7q-4 3 -12.5 20t-9.5 22q0 5 -3 5q-2 0 -8 13q-6 12 -3 15q2 2 1.5 3t-2.5 0q-4 0 -4 3q-1 2 -2 3q-1 -1 -2 1t-4 11q-5 17 -10 17q-1 0 -1 4q0 5 -5 12q-5 6 -2 8q3 1 -1 5q-9 9 -11 27q0 4 -3 10q-4 8 -4 10l-8 20q-2 4 -2 9q0 1 -3 6q-1 2 -4 10q-2 7 -5 11 q-4 6 -4 8q0 1 -4 7t-2 6v1q0 2 -1.5 4.5t-3.5 5.5q-3 5 -5 8t-1 3q2 0 -2 6q-1 2 -8 22q-5 17 -8 19q-5 5 2.5 12.5t13.5 3.5q3 -4 5 -8t6 -9q3 -3 3 -9q0 -5 2 -9t4 -12q4 -24 8 -26q3 -3 3 -5q0 -3 4 -9q3 -5 2 -6t6 -20q8 -20 8 -23q0 -4 2 -6t6 -13q4 -13 9 -21 q5 -10 1 -12t0 -2q2 0 8 -10.5t5 -11.5q-1 -2 3 -6q5 -5 3 -5v-1q0 -1 1 -3.5t2 -5.5q6 -11 4 -14q-2 -4 1 -5q3 -2 14 -23q11 -22 14 -25q5 -5 8 -15q3 -6 7 -11.5t7.5 -8t4.5 -0.5t-1 1q-3 -1 -5 1q0 2 1 3q4 0 7 18l1 2q1 1 1 2q1 2 4 20q4 25 16 75q6 22 9 38q2 10 4 17 q2 6 2 9q0 1 1 2q2 2 2 3q2 4 0 6q-1 1 1 8q5 12 7 35l2 8v3q1 4 1.5 10.5t0.5 11.5q0 9 3 9t-1 27q-2 5 -1 8t3.5 4t8.5 2q6 2 8 0t8 -15q7 -15 11 -28q3 -9 6 -15q2 -5 4 -11q2 -13 5 -18t3 -6q0 -3 3 -9q4 -8 2 -11q-1 -3 1 -3q1 0 5 -12q1 -3 2.5 -8.5t1.5 -6.5t2 -7 t5 -17.5t5 -20.5q13 -49 16 -56q6 -15 4 -17q1 -1 3 -1q2 1 2.5 0.5t-0.5 -2.5l-1 -2l3 2q4 4 4 9q0 4 2 22t2 19q0 3 2 3t2 4q0 7 3 16q3 7 5 20q2 10 3 11q1 2 10 36q6 18 9 17q1 -1 1.5 0t-0.5 2q-1 3 6 23q7 19 5 21q0 2 1 3q2 0 9 19.5t9 31.5q2 8 3 8q2 0 6 12l5 15 l1 2q1 3 1.5 6.5t1.5 6.5q7 23 8 30q10 43 10 47q0 3 3 5.5t5 1.5v3zM497 479q-1 1 -3 2q-7 0 -1 -3q1 -2 4 1zM498 463q0 2 -7 -5l-5 -5l6 4zM480 410q0 3 -6 -3q-3 -4 1 -1q5 3 5 4zM464 370q-4 4 -5 4q-2 0 2 -4t5 -4q2 0 -2 4zM63 350l-4 4l1 -4q4 -4 5 -4q2 0 -2 4z M461 350q0 2 -5 -3q-1 -2 -3 -3q1 1 3 2q5 3 5 4zM285 337l1 2l-6 -4t-8 -2q-1 1 -1.5 0.5t0.5 -1.5q1 -2 6.5 -0.5t7.5 5.5zM279 321q-1 1 -3 2q-7 0 -1 -3q1 -2 4 1zM276 314q2 2 -2 2q-7 0 -1 -3q1 -1 3 1zM446 306q2 2 -2 2q-7 0 -1 -3q1 -1 3 1zM74 298q-4 4 -5 4 q-2 0 2 -4t5 -4q2 0 -2 4zM427 255q-4 4 -5 4q-2 0 2 -4q3 -3 4 -3q2 0 -1 3zM336 183l-4 4q-2 0 2 -4l4 -4q2 0 -2 4zM407 179q1 2 0.5 2t-4.5 -2t-1 -2t5 2zM127 173q-4 4 -5 4q-2 0 2 -4t5 -4q2 0 -2 4zM342 169q-4 4 -7 4h-3t0 -1t3 -1q1 0 7 -3v1zM243 168q0 7 -3 1 q-1 -1 1 -3q1 -1 1.5 -0.5t0.5 2.5zM135 166q0 2 -6 -4q-3 -4 1 -1q5 3 5 5zM399 163q0 7 -3 1q-1 -1 1 -3q1 -1 1.5 0t0.5 2zM244 156q0 2 -6 -4q-3 -4 1 -1q5 3 5 5zM355 118q-4 4 -5 4q-2 0 2 -4t5 -4q2 0 -2 4zM360 108q0 2 -5 -3q-3 -4 1 -1t4 4zM371 88q0 3 -6 -3 q-3 -4 1 -1q5 3 5 4zM226 74q-1 1 -3 2q-7 0 -1 -3q2 -1 4 1zM223 58l1 4l-4 -4q-3 -4 0 -5h2q-2 2 1 5z" />
<glyph unicode="X" horiz-adv-x="403" d="M292 409q5 3 10 0t4 -14.5t-7 -16.5q-6 -6 -6 -8q0 -5 -2 -5q-2 -1 -9.5 -15t-7.5 -16t-4 -6q-3 -3 -7 0q-2 2 -2 1.5t2 -3.5q4 -5 -6 -23q-16 -32 -18 -37q-2 -6 -6.5 -15.5t-5.5 -11.5q-4 -10 -4 -12t-3 -2t-5 -2h7q5 1 6.5 0.5t0.5 -3.5q0 -3 1 -3q2 1 9 -5.5t7 -9.5 q0 -2 6 -8q30 -28 30 -32q0 -3 -5 -5q-2 -2 -2 -3q2 0 6 2q5 4 18 -14q14 -19 23 -30q8 -8 5 -10q1 -1 3 -1q4 1 15 -9q11 -11 8 -16q-3 -4 -1 -10q2 -5 -1.5 -7.5t-11.5 -2.5q-10 0 -13 15q-2 7 -3 8q-4 3 -16 20t-12 19l-1 1q-3 -2 -7 4q-6 9 -7 10q-5 4 -14 15.5t-9 13.5 q0 3 4 1h1q-2 2 3 7q6 8 -3 0q-6 -6 -11 -1t-3 8t-1 2t-6 2t-1 5q1 1 -2 1t-3 2q0 1 -0.5 2t-1.5 0q-4 -2 -6 5q-3 7 -9 6q-3 -1 -9 -4q-2 -2 0 -2q1 0 3 1q4 1 4 0.5t-3 -2.5q-4 -3 -10 -18.5t-6 -22.5q0 -4 -3 -7t-8.5 -17t-5.5 -18q0 -5 -3 -5q-2 0 -1 -1t-4 -19 q-6 -23 -6 -30q0 -4 1 -6q1 0 1 -2q0 -6 -4.5 -17t-7.5 -11h-1q-1 1 -1.5 -0.5t-0.5 -3.5q0 -5 -4.5 -6.5t-10.5 1.5q-6 4 -4 11q2 10 4 12.5t6 -0.5t1 1q-4 4 1 26q7 23 10 29l9 27q1 6 10 29t11 26q7 11 10 27q0 2 4 12q3 9 7 6q0 3 -7 10l-22 22q-10 10 -7 12q2 2 -1 2 q-5 0 -16 10.5t-11 15.5v1q-1 1 -3 1q-4 0 -4 3t-2 3q-3 0 -4 2l-2 2q-1 2 -3.5 4.5l-5.5 5.5l-8 8q3 -2 2 1t-5 3q-2 0 -8 4t-10.5 8.5t-3.5 5.5t-1 2l-4 2q-5 2 -5 4t3 1q2 -1 1 1q-1 3 -7 1q-4 -1 -4.5 0t0.5 3q0 3 -1 3q-1 -1 -2 0t-1 2q0 2 -3 -1q0 -2 -1 -3 q-7 -13 -13 -2q-3 5 0 11t-3 17q-11 19 3 19q19 0 9 -12l-3 -4l3 2q6 4 9 2q5 -3 12.5 -13t7.5 -14l-1 -1q-1 -1 2 0q3 2 7 -2t0 -7q-2 -2 -1.5 -3t2.5 1q4 2 9 0t5 -6t5 -6q6 -2 6 -7q0 -6 7 -10t16 -12.5t11 -12.5t7 -6q6 -2 16.5 -14t10.5 -17q-1 -4 4 -4q6 0 9 -6 q5 -7 10 -9h4v2q0 9 14 43t18 34h1l-1 2q-2 3 -1 8t4 8.5t5 2.5l2 -1l-2 2q-3 3 0 9q2 2 4 12q2 7 4 7q3 0 1 4v1q0 4 10.5 17t17.5 17zM298 401q0 1 -5 -4q-3 -4 1 -1t4 5zM284 385q0 7 -3 1q-1 -3 -5 -1h-1q3 -3 6 -3t3 3zM66 381q-1 1 -3 2q-3 0 -5 -2t-5 -1q-2 1 -1 -1 q2 -5 6 -1t5 2q1 -1 3 1zM287 377q0 2 -5 -3q-3 -4 1 -1t4 4zM276 372q0 2 -5 -3q-3 -4 1 -1t4 4zM272 348l-2 2q-1 0 -3 -2q1 -1 3 -2q4 0 2 2zM109 336q0 3 -6 -3q-3 -4 1 -1q5 3 5 4zM260 334q0 2 -6 -4q-3 -4 1 -1q5 3 5 5zM255 315q0 3 -6 -3q-3 -4 1 -1q5 3 5 4z M136 307l-4 4q-2 0 2 -4q3 -3 4 -3t-2 3zM247 303q2 2 -2 2q-7 0 -1 -3q1 -1 3 1zM148 299l-2 2l-2 -2q-2 -2 2 -2t2 2zM237 285q0 7 -3 1q-2 -2 1 -4q1 1 2 3zM169 277q0 9 -4 1q-1 -2 1 -4q1 -1 2 0.5t1 2.5zM212 233q0 7 -3 1q-1 -2 1 -4q1 1 2 3zM217 205q5 2 1 4 q-3 0 -3 -1q1 -2 -2 -2q-4 0 -2 -2q1 -1 6 1zM190 158l-1 4q-1 -1 -5 -6q-2 -3 -1 -3q4 4 6 2q1 -1 1 0v3zM281 149q-3 -2 -7 0q-4 3 -1 -1q4 -4 8 -2t4 5q0 2 -4 -2zM289 141q-1 1 -3 2q-7 0 -1 -3q1 -2 4 1zM298 127q0 9 -4 1q-2 -2 1 -4q1 -1 2 0.5t1 2.5zM308 120 q-5 5 -6 5q-2 0 3 -5t7 -5q1 0 0 1zM316 108q-2 2 -4 2t-4 -2q-1 -1 0.5 -1.5t3.5 -0.5q3 1 4 2zM170 105l-2 2q-1 0 -3 -2q1 -1 3 -2q4 0 2 2zM334 88l-4 4l1 -4q4 -4 5 -4q2 0 -2 4zM341 71q5 5 3 5q-1 0 -4 -3q-4 -5 -6 -3q-1 1 -2 1t-1 -1q0 -6 7 -1q2 1 3 2zM160 68 q0 7 -3 1q-1 -1 1 -4q1 1 2 3zM155 33l3 5q-3 0 -6 -5q-5 -5 -1 -7h1q-1 1 3 7z" />
<glyph unicode="Y" horiz-adv-x="290" d="M91 30l-2 2l-2 -2q-2 -2 2 -2t2 2zM92 46l-4 4q-2 0 2 -4l4 -4q2 0 -2 4zM97 71q0 3 -5 -4q-3 -4 1 -1q4 4 4 5zM97 80q0 4 -5 -3q-3 -4 1 -1zM102 90q0 4 -5 -3q-3 -4 1 -1zM100 103q2 3 1 3t-4 -3q-3 -4 1 -6h1q-1 1 1 6zM103 111q2 2 -2 2q-6 0 -1 -3q1 -1 3 1z M106 123q-1 1 -3 2q-5 0 -1 -3q2 -2 4 1zM110 135q2 2 -2 2q-6 0 -1 -3q1 -1 3 1zM117 147q0 4 -5 -3q-3 -3 -3 -4l3 2zM125 165q-1 1 -3 2q-4 0 0 -3q1 -1 3 1zM128 174q0 6 -3 1q-1 -1 1 -4q1 1 2 3zM140 201q0 5 -3 1q-1 -2 1 -4q1 1 2 3zM151 220q8 8 3 8q-3 0 -2 -1 q2 -1 -5 -8t-3 -9h1q-2 2 6 10zM167 245l-1 3l-5 -5q-2 -2 0 -3q3 4 5 2q1 -1 1 0v3zM172 262l-4 4q-2 0 2 -4l4 -4q2 0 -2 4zM151 262q-4 4 -5 4q-2 0 2 -4l4 -4zM165 267q3 3 2 3t-3 -2t-4 -1q-2 2 -2 0t2.5 -2t4.5 2zM143 272q-3 3 -4 3t2 -3l4 -4q2 0 -2 4zM135 276 q-2 2 -3 2l-2 -2q-2 -2 2 -2q2 1 3 2zM185 282q0 5 -6 -3q-5 -6 1 -2zM130 283q-2 2 -4 2q-4 0 2 -3q1 1 2 1zM180 287q0 3 -5 -4l-3 -3q1 1 3 2zM190 295q2 2 1 2t-3 -2t-3 -1q-1 2 -4 -1q-1 -1 1 -1q4 -1 8 3zM185 301q-4 4 -5 4q-2 0 2 -4l4 -4zM189 309q0 5 -3 1 q-2 -2 1 -4q1 1 2 3zM198 316q-1 -1 -7 3l-1 -1q6 -7 8 -3v1zM88 318q-4 4 -5 4q-2 0 2 -4q3 -3 4 -3q2 0 -1 3zM82 324l3 5q-2 0 -5 -3l-1 -3h-1h-2l1 -1h-1l-1 1l-1 1l-2 3q1 2 -1 1q-1 -1 -2 -0.5t-1 1.5l-2 2q-2 -2 -13 9q-12 11 -13 23t5 15q13 6 13 -12q1 -8 2 -8 q3 2 7 -6l4 -5q0 3 2 1q3 -2 -2 -7l-3 -4l4 2q5 3 15 -6q10 -8 10 -13q0 -3 2 -3q7 1 10 -5q5 -8 0 -9q-2 0 -4 2q-4 3 -1 -1q4 -4 7 -2q3 3 13 -7t10 -13q0 -2 1 -1q3 3 10 -3q15 -9 24 0q1 1 1 1.5t-2 -0.5h-2q0 1 1 3q6 10 9 22q9 27 21 57q10 25 10 27q0 1 6 13 q5 10 5 15q0 2 5 9q4 5 11.5 6.5t8.5 -2.5q2 -4 -2 -13q-19 -57 -22 -78q0 -1 -1 -3.5t-2 -3.5q-2 -2 -2 -8q0 -7 -30 -63q-5 -9 -7.5 -14t-4.5 -7.5t-3 -2.5t-3 1q-4 3 -1 -1t-10 -25t-15 -26q-3 -4 -4 -4q-1 -1 -2 -1q1 -1 -10 -28q-17 -35 -18 -58q0 -9 -4 -21 q-3 -9 -1 -23q0 -3 0.5 -6t0.5 -5l1 -2q0 -1 -2 -9t-4 -8t-2 -4q0 -8 -11 -2q-6 4 -5 15q1 3 2 13t1 13t0.5 8t1 9t0.5 5q1 2 3 18q0 3 0.5 6.5t1 6t0.5 3.5q2 4 2 7q0 1 1 3.5t3 6t3 6.5q7 16 7 17q0 4 2 4t6 10q1 2 2.5 4.5t2.5 2.5l2 1q1 -1 1.5 -0.5t-0.5 1.5q-2 4 3 14 q13 26 18 38q1 2 2 3.5t2 0.5t1 0v3q0 4 3 4q2 0 1 3q-2 3 2 7l1 4l1 4q4 4 6 2l1 1q-2 3 -6 -1t-11 -1q-7 2 -7 5q0 1 -1 1q-2 -1 -8.5 5t-6.5 8q0 3 -3 3q-7 0 -43 43q3 0 6 3zM209 330q0 6 -6 2q-2 -1 -3 -3l1 -1q5 3 6 2q2 -2 2 0zM200 340l-2 2l-2 -2q-1 -1 0 -2t2 -1 t2 1t0 2zM214 345q-4 4 -5 4q-2 0 2 -4q3 -3 4 -3q2 0 -1 3zM213 362q1 1 0 1h-3q-3 0 -7 -4l1 -1q3 3 6 3q2 0 3 1zM62 351q-2 -2 -11 6l-8 8l8 -9q12 -14 12 -5q0 1 -1 0zM223 372q0 1 -3 4q-4 3 -5 0v-2q1 1 5 -1zM223 385q3 3 2 3t-3 -2t-4 -1q-2 2 -2 0t2.5 -2t4.5 2z M218 392q0 4 -5 -3q-3 -4 1 -1zM227 394l-2 2q-1 0 -3 -2q-1 -1 0.5 -2t2.5 -1t2 1t0 2zM228 402q-3 3 -4 3t2 -3l4 -4q2 0 -2 4zM232 408q-1 1 -3 2q-5 0 -1 -3q2 -1 4 1zM231 417q-3 3 -5 3q-1 0 2 -3l4 -4z" />
<glyph unicode="Z" horiz-adv-x="457" d="M106 394q3 3 1 3q-1 0 -4 -3q-4 -4 0 -7q1 1 2 1q-1 1 -0.5 3t1.5 3zM96 390q0 4 -1 4t-5 -5q-5 -5 -8 -4q-2 1 -1 -1q2 -3 7 1q6 4 7 3t1 2zM146 391q1 1 -0.5 2t-2.5 1q-7 0 -1 -3q3 -1 4 0zM199 391q1 1 0 2t-3 1q-7 0 -1 -3q3 -1 4 0zM71 387q5 5 3 5q-1 0 -5 -4 q-5 -4 -6 -3t-4 -1q-1 -2 1 -3q5 0 11 6zM251 388q0 -2 -5 1l-1 -1q3 -5 5 -3t6 -2q4 -3 7 0q2 2 2 2.5t-2 -0.5q-5 -2 -8 1q-4 4 -4 2zM234 381q0 1 -4 5t-6 0v-2q2 2 6 -1q4 -4 4 -2zM316 355q-1 1 -3 2q-7 0 -1 -3q2 -1 4 1zM323 349l-1 3q-2 -1 -4 -3q-3 -4 1 -4t4 4z M306 304q0 7 -3 1q-1 -2 1 -4q1 1 2 3zM297 285l-1 1q-1 2 -2 2l-1 -1l-1 -2q-2 -2 2 -2q2 1 3 2zM286 278q0 7 -3 1q-1 -2 1 -4q1 1 2 3zM283 270q-3 3 -6 3q-3 -1 -3 -2q2 -2 7 -2zM273 267q0 3 -6 -4q-3 -4 1 -1q5 3 5 5zM254 250q-4 4 -5 4q-2 0 2 -4t5 -4q2 0 -2 4z M242 233q0 3 -5 -3t1 -2q4 3 4 5zM231 230l-3 -1l-4 -4l-3 -4l4 3zM214 208l-4 4q-2 0 2 -4q1 -1 2 -3t2 -2zM205 187q2 2 -4 4q-3 1 -3 0.5t2 -2.5q4 -3 5 -2zM186 174q0 3 -5 -3t1 -2q4 3 4 5zM179 163q-1 -1 -6 2q-6 4 -1 -2q3 -3 6 -3t3 3q0 2 -2 0zM171 159q-2 2 -3 2 l-2 -2q-1 -1 0 -2t2 -1q2 0 3 1t0 2zM165 145l-2 1q-5 0 -6 -2q-3 -3 -8 -1q-5 1 -2 -2t8 -1q2 0 4 2l3 1q1 0 3 2zM150 135q0 3 -6 -4q-3 -4 1 -1q5 3 5 5zM128 110q0 3 -5 0l-2 -2q-1 -2 -0.5 -2t2.5 1q5 2 5 3zM122 101q0 3 -6 -4q-3 -4 1 -1q5 3 5 5zM106 87l2 4 q-2 -1 -6 -5q-5 -5 -1 -5h3t0 1q-2 2 2 5zM97 76q0 4 -6 -4q-3 -4 1 -1q5 3 5 5zM78 50q2 3 2 4l-7 -4q-6 -4 -2 -4q3 0 7 4zM71 42q-1 1 -4 2q-5 2 -3 0t-1 -6q-5 -6 2 -1zM337 28q0 9 -4 1q-1 -2 1 -4q1 -1 2 0t1 3zM367 27q0 4 -3 4q-4 0 -1 -4l4 -4v4zM347 26q-1 1 -3 2 q-7 0 -1 -3q2 -1 4 1zM289 21q2 2 -4 4q-3 1 -3 0.5t2 -2.5q4 -3 5 -2zM242 22q0 3 -5 -3t1 -2q4 3 4 5zM269 20q1 1 0 2t-3 1q-9 0 -1 -4q2 -1 4 1zM77 16q-1 1 -2 3t-2 2l2 -5l4 -4q2 0 -2 4zM90 17q1 1 -0.5 2t-2.5 1q-7 0 -1 -3q3 -1 4 0zM189 20q0 4 -6 -4q-3 -4 1 -1 q5 3 5 5zM100 11q4 4 2 4t-4 -3q-1 -2 -4 -1t-3 0q0 -3 3.5 -3t5.5 3zM112 12q-1 1 -3 2q-7 0 -1 -3q2 -1 4 1zM220 220q-1 3 8 12q11 11 13 9q1 -1 1 -0.5t-1 2.5q-1 5 9 15t10 11q-1 1 0.5 1.5l4.5 1.5q5 2 5 6q0 3 5.5 6t9.5 2q2 0 1 1q-2 2 8 16q5 7 14 25q5 8 8 8 q1 -1 1.5 0t-0.5 2t-2.5 2t-2.5 0t-3 3l-1 2q-1 3 -1.5 5t-1.5 1q-3 -3 -23 11q-6 4 -27 11q-3 1 -30 3q-20 2 -30 4q-6 2 -33 2q-44 0 -66 -3q-15 -2 -19 -6q-3 -3 -8 0l3 -6q5 -7 5 -8.5t-3 -5.5q-8 -8 -11 9v3q0 8 -3 8q-2 -1 -4 1.5t-3 6t0 6.5q1 6 20 12q16 5 41 5h20 q73 -2 80 -5q2 -2 20 -2q17 0 21 -2t10 -2q5 -1 24 -10.5t26 -14.5q6 -4 8 -4q3 0 6 -7.5t3 -15.5q0 -7 -9 -27.5t-17 -31.5q-8 -10 -8 -7l-3 -4q-3 -6 -8 -6q-3 0 -1 -2q2 -3 -3 -7t-9 -3q-1 -1 -2 -1q3 -3 -9 -11q-9 -6 -14 -11q-3 -4 -5 -2t0 -3q2 -4 0 -4h-2q-6 2 -7 -1 q-2 -4 2 -1l-6 -9q-10 -12 -13 -12q-4 0 -4 -4q0 -3 -10 -10.5t-13 -6.5q-1 0 0 -1v-1q0 -4 -8.5 -13.5t-12.5 -9.5h-1q-1 1 -1.5 0.5t0.5 -2.5q0 -4 -15.5 -22t-19.5 -18q-2 0 -2 -2q0 -8 -22 -30q-4 -4 -4 -5q0 -2 -10 -12q-13 -13 -17 -20q-6 -11 -9 -8q-2 2 -4 -1 q-2 -4 -4 -2q-1 1 -1.5 0.5t-0.5 -2.5q0 -4 4 -1q2 2 5.5 3t6 1t2.5 -1q0 -3 34 -5q6 0 13.5 -0.5t11 -1t4.5 -0.5q3 0 19 2q6 1 47 3q75 3 94 6q18 2 59 2q42 -1 46 -4l3 -3q7 -6 5.5 -10t-11.5 -4q-1 0 -15 0.5t-23 0.5q-26 0 -46 -2q-24 -4 -98 -6q-47 -2 -51 -3 q-8 -2 -41 -2q-31 0 -49 2q-25 5 -28 21q-1 9 5 15q2 1 3 0v2q-2 4 7 14.5t13 9.5q4 -2 6 2q1 1 0.5 1.5t-2.5 -0.5q-3 -1 2 5l6 8q0 5 22 27q9 9 14 6q4 -3 1 1t-1.5 7t5.5 2q2 -1 2.5 0t-0.5 3q-2 4 7 12.5t12 6.5q1 -1 2 -0.5t0 2.5q-2 3 -6 1l2 2l12 10h-1l9 11 q13 13 16 11q2 -1 1 1q-2 3 4.5 10.5t9.5 5.5q2 -1 2.5 0t-0.5 3q-1 4 6 8.5t11 2.5q2 -2 2 -1t-2 3q-1 1 -1 2z" />
<glyph unicode="[" horiz-adv-x="311" d="M65 520q1 1 7 1q2 0 5.5 -1t9 -2t9.5 -2q25 -5 28 -6q6 -3 20 -3q6 0 30 -11q8 -5 11.5 -7.5t4 -5t0.5 -7.5q0 -10 -3 -10q-2 0 -12 5t-11 8q-9 2 -18 2q-14 0 -22 4q-6 3 -16 3q-11 0 -5 6q3 3 2.5 3t-4.5 -3q-8 -4 -9 -4q-5 2 -5 -2l3 -5q6 -3 6 -2q0 4 1 4q9 4 9 -4 q0 -2 -4.5 -7t-9 -8.5t-5.5 -2.5q-2 -4 -4 -9q-2 -12 -2 -31q0 -26 2 -48q3 -37 6 -59q4 -32 7 -115v-35q0 -20 1 -24q2 -14 3.5 -24t2 -12.5t0.5 -3.5v-2q14 -2 28 -2q30 0 34 -2q11 -5 47 -7q4 0 11 -1l7 -1q2 0 14 -5q13 -5 16 -8q8 -8 4 -11q-6 -6 -18 -1q-11 3 -22 3 q-16 0 -53 6q-22 2 -29 2q-14 0 -28 -4q-10 -4 -20 0q-8 1 -9.5 3.5t-1.5 14.5q0 20 -2 24q-1 2 -1 7.5t-0.5 14.5t-1.5 15q-1 7 -2 23.5t-2 20.5q-2 7 -2 14v29q0 24 -1 37q-3 52 -6 74q-4 29 0 29t0 5q-5 9 -7 48l-2 31l11 9q11 9 11 17q0 9 -7 9q-4 0 -4 9q0 4 1 5.5 t4 0.5l2 -1l-2 2q-5 3 -10 -1q-7 -4 -9 -4t-2 5q0 6 5 6t9 4zM94 509q0 5 -7 -4q-3 -4 -2.5 -4.5t4.5 2.5zM117 499q0 4 -3 4q-10 0 -2 -4q2 -3 5 0zM137 498q0 1 -2 1q-8 0 -2 -3q1 -1 4 2zM178 479q-2 4 -4 6q-5 5 -7 0q-1 -1 0 -2t2 0t5 -2zM83 292q0 2 -3 2q-8 0 -2 -3 q2 -2 5 1zM87 232q0 10 -4 2q-2 -2 2 -6q2 0 2 4zM165 83q-4 4 -5 4q-5 0 -1 -3q1 0 3 -1q6 -3 3 0zM208 80q0 8 -3 2q-2 -2 2 -6q1 0 1 4zM223 78q0 2 -4 2q-5 0 -5 -2q-1 -1 2 -2z" />
<glyph unicode="\" horiz-adv-x="238" d="M54 280q6 11 11 -5q2 -9 7 -16q4 -8 2 -11q-1 -2 -1 -3t2 1t4 0q3 -3 1 -5q-1 -1 -0.5 -1.5t1.5 0.5q2 0 9.5 -12t7.5 -15q0 -1 3 -3t2 -3v-2q1 1 3.5 -2.5t1.5 -5.5q-2 -1 4 -7q9 -9 14 -18q2 -4 6.5 -9.5t4.5 -6.5q21 -31 23 -38q1 -2 5 -6q3 -3 3 -7q0 -3 2 -3t4 -3 l2 -4q2 0 3 -3q2 -4 5 -4q5 0 5 -2q0 -3 1 -4q4 -4 -5 -6q-2 -1 -4 -1q-4 0 -8.5 4t-2.5 6v2q-3 0 -4 1q-2 2 -5.5 9t-2.5 8q2 2 -2 2q-2 0 -2 2q0 3 -2 3q-1 0 -4.5 5.5t-7 12.5t-3.5 9q0 1 -2 1q-1 0 -1 1q0 2 -2 2t-2 2t-1 2l-4 4q-4 4 -2 7q2 2 1.5 3t-2.5 0t-4.5 4 t-1.5 7q2 2 -1 2q-2 0 0 2l-2 -1l-3 -1q-6 10 -6 13t-2 3t-4 3q0 1 -2.5 4.5t-3.5 5.5q-4 8 -4 9q0 2 -2 2t-1 3v2q-1 -1 -4 2q-2 2 -1 3q0 1 -1 1t-3.5 2.5t-1.5 3.5q0 2 -1 3q-2 1 -4.5 6t-1.5 7h-1q-1 0 -3 3t-3.5 7t-0.5 5t0.5 1.5t-1.5 -0.5q-2 -2 -4 3q-4 9 0 14z M104 197q-2 2 -4 -1v-1q3 2 4 1v1zM111 185q0 2 -2 2q-5 0 -1 -2q2 -1 3 0zM158 116l-3 3q-2 2 -3 0v-1q1 1 3 -1zM184 82l-2 2q0 -1 -1 -2q0 -1 1 -1q2 0 2 1z" />
<glyph unicode="]" horiz-adv-x="321" d="M182 569q9 7 20 3q13 -6 13 -17q0 -15 -20 -48q-7 -13 -7 -41q0 -22 5 -40l2 -15q0 -6 2 -11q1 -1 4 -6.5t3 -8.5q0 -9 7 -32q14 -52 15 -59q0 -3 3 -12l4 -12q1 -2 5 -12.5t4 -15.5q0 -11 4 -21q5 -13 5 -16q0 -52 13 -91q3 -14 3 -19t-3 -17q-4 -11 -9 -15t-16 -4 q-10 0 -17 1q-20 0 -38 -8q-11 -5 -25 -5q-1 2 -3 -1q0 -1 -1 -2l-25 -7q-47 -6 -54 -8q-14 -5 -22 5q-7 7 -7 10t5 13q13 27 19 27q3 0 5 -1q10 -8 16 -15l5 -3q-3 5 0 5q18 2 45.5 12t27.5 14q0 3 29 8q7 1 14.5 3t12 3.5t5.5 1.5q2 2 2 17q0 38 -7 58q-9 27 -11 50 q-3 14 -7 20q-5 7 -2 11q1 2 -2 7q-5 9 -9 32q-1 3 -2 10t-2 10q-13 33 -13 45q0 4 1 5q3 5 -2 5q-9 0 -9 13t-2 13q-5 0 -5 5q0 10 -6 34q-7 28 -7 39q0 7 -0.5 9.5t-3.5 0.5q-3 -5 -21 3q-14 4 -9 10t3 6q-2 -1 -5 -3q-9 -6 -22 0q-4 3 -14.5 6t-12.5 4q-10 2 -11 5t0 16 q4 25 12 25q2 0 10 -2q12 -5 20 -15q21 -24 51 -24h7q8 0 16 19q7 18 14 23zM72 553l-1 1q-3 -2 -6 -6q-1 -2 -3 -4l4 1zM184 530l-5 3l-2 -3q0 -5 2 -5q5 0 5 5zM186 514l2 6l-4 -6q-2 -4 -5 0q-4 6 -4 0q0 -4 4 -4t7 4zM155 509q0 4 -6 1q-2 -1 -3 -3q-2 -2 -0.5 -3.5 t4.5 0.5zM177 501q-2 3 -9 3q0 -1 -2 0q3 -5 7 -5h2.5h2t-0.5 2zM199 351q0 12 -4 2q-1 -2 2 -7q2 0 2 5zM231 239q0 7 -2 6q-2 0 -3 -3q-2 -2 0 -5q5 0 5 2zM251 117q-1 -1 -7 3q-2 3 -3 3l-1 -2l2 -4q3 -6 8 -6t5 6t-4 0zM258 99q0 7 -5 5q-4 -2 -4 -8q3 0 4 -2q3 -2 5 5z M231 94q0 5 -1 6q-2 1 -4 -4q-2 -2 0 -5q5 0 5 3zM215 91q0 5 -4 5q-10 0 -3 -5q4 -5 7 0zM188 75q1 2 -4 6q-2 1 -3 2v-3l1 -2q4 -6 6 -3zM220 75q0 4 -4 5.5t-5 -2.5q-3 -5 -7 0l-1 1q-1 0 1 -4q2 -3 7 0q3 5 6 0t3 0zM159 73l2 5q-2 -2 -4 -5q-5 -7 0 -11q1 -2 2 -2t0 2 q-4 5 0 11zM128 60l4 5q-2 0 -4 -3q-4 -6 -7 -2q-4 6 -4 0q0 -4 4 -4t7 4zM150 60q-2 -3 -9 2q-3 4 -4 4t2 -6t8 -6t5 6q0 3 -2 0zM114 55l-1 2q-5 4 -7 1l-5 -6q-5 -7 -5 -7.5t5 5.5q9 7 13 2q2 -3 3 -3zM83 55q0 6 -5 -2l-2 -3l-4 -6q1 0 4 3zM94 55q0 7 -6 -5l-4 -6 q1 0 4 3zM83 538l5 -3q-3 1 -5 3z" />
<glyph unicode="^" horiz-adv-x="237" d="M106 361q5 3 12.5 1t7.5 -6q0 -1 4 -3q3 -1 2 -2q-2 -2 2 -6q3 -3 3 -7l3 -6q5 -9 10 -32q3 -15 8 -25q3 -8 10 -13q12 -9 4 -11h-4q-5 1 -10 5t-4 6q0 1 -4 1q-2 0 -2 2v6q-8 15 -12 37q0 1 -1 3l-2.5 5l-2.5 5q-4 10 -4 13l-4 8q-2 4 0 6l-4 -1q-3 -2 -4 -1t-6 -1 q-4 -2 -2 -2q4 0 -10 -14q-7 -7 -8 -10q-9 -18 -12 -21t-2 -4q2 -2 -8 -19q-5 -8 -8 4q-2 7 0 11q4 4 2 4l2 3q1 3 3.5 6.5t4.5 5.5l1 2q1 2 1.5 4t1.5 4q2 3 3.5 5t2.5 1v1q-2 2 5 10.5t9 7.5v1q-1 1 1.5 4t4.5 2q-2 6 6 10zM114 356l2 3l-2 -2l-2 -1q-2 2 -2 0q0 -4 4 0z M102 342v3l-2 -2q-1 -1 -2 0q-2 2 -2 0t2 -2t4 1z" />
<glyph unicode="_" horiz-adv-x="295" d="M73 31h2q2 0 5.5 -0.5t6.5 -1.5q2 0 5 -0.5t7 -1.5t6 -1q12 -2 16 -2q15 -3 29 -3q6 0 13 -3q14 -4 23 -4q36 0 36 -4q-1 -1 1 -6t-2 -7q-3 -2 -7 0t-25 3q-23 1 -36 6q-9 4 -9 2q-1 0 -2 1t-8 1q-11 0 -16 2q-9 4 -9 2t-11 -2q-18 0 -23 3q-4 2 -3 9zM81 19q0 5 -2 1 q-1 -2 0 -3q2 0 2 2zM106 18q0 1 -2 1q-5 0 -1 -2q1 -1 3 1zM158 9q0 2 -1 2q-5 0 -1 -2q1 -1 2 0zM192 10q-1 0 -4 -2q-2 -3 1 -1zM184 7q0 2 -2 2q-5 0 -1 -2q1 -1 3 0z" />
<glyph unicode="a" horiz-adv-x="538" d="M276 234q2 0 6 0.5t6 0.5q10 0 26 -3q18 -3 21 -5.5t2 -12.5q-2 -13 -5 -15q-4 -2 -14 -21q-5 -8 -9.5 -13t-5.5 -4q-2 1 -1 -1v-1q0 -11 -22 -31q-7 -7 -7 -10q0 -14 13 -31q5 -7 4 -10q-1 -2 1 -2t26 -22q18 -16 25 -20t25 -6h2q17 0 28 9q5 4 7 2l1 1v1q0 6 19.5 21 t33.5 20q12 4 23 -2q12 -5 11 -12q-1 -6 -17 -6q-14 0 -14 -3q2 -4 -6 -6t-11 -7q-4 -5 -8 -3q-3 1 -1 -2q0 -3 -18.5 -18t-25.5 -16q-6 -2 -19 -2h-6.5t-4.5 0.5t-2 1.5v2q1 2 0 2.5t-4 -1.5q-4 -2 -7 -2q-8 0 -16.5 3.5t-8.5 7.5l1 1v1q2 2 -2 4q-3 2 -2 -1q2 -3 1 -3 t-4 2t-4.5 4.5t-0.5 2.5h-6q-6 -1 -14 13q-8 13 -17 19q-10 5 -10 11q-1 3 -2 3q-1 -1 -2 0t-2 3l-2 4q-3 8 -9 10h-2q4 -4 -15 -23l-3 -2q-2 -2 -4 -4.5t-4 -4.5q-13 -13 -31 -20q-3 -1 -11.5 -4.5t-9.5 -4.5q-10 -3 -12 -2q-1 1 -18 3q-35 4 -54 21q-8 7 -6 8q1 0 3 -1h2 q-3 3 -5 3q-9 1 -15.5 13.5t-6.5 28.5v10q0 21 14 51q7 14 7 17t11.5 15.5t14.5 12.5q3 -1 1 2q-1 2 2 4.5t11 4.5t14 3t9 0.5t3 -2.5q0 -5 17 3q12 4 19 4q11 0 15 -4q1 -1 2 -4.5t1 -6.5t-1 -3h-4q-4 0 -10 -0.5t-12 -0.5q-27 -2 -30 -5q-7 -5 -11 -6q-5 -2 -5 -5t-3 -1 t-5 -3t-4 -3q-1 1 -3.5 -2t-4.5 -7q-2 -5 -4 -7t-4 -1q-3 2 -2 -1q1 -2 -6 -16q-10 -17 -10 -38q0 -25 15 -37q6 -5 4 -9q-1 -3 2 -1q4 2 9 -3q9 -6 20 -10q13 -5 20 -5q9 0 30 9q17 8 20 6q2 -1 2.5 -0.5t-0.5 2.5q-2 5 1 8q3 4 12 -3l9 -7l-7 7l-7 7l12 14q3 4 9 11t8 9 q6 6 3 23q-2 22 -2 31q0 17 3 20q3 4 2 5v2q0 5 5.5 17t10.5 17q7 5 17 7zM280 224q1 1 -0.5 2t-2.5 1q-9 0 -1 -4q2 -1 4 1zM293 220q0 4 -4 4q-5 0 -1 -4l5 -4v4zM318 215q-2 -2 -9 3t-1 -1q5 -6 6.5 -6.5t3.5 3.5v1zM327 220q2 2 1 2q-2 0 -3 -1.5t0 -3.5t3 -4q3 -2 1 1 q-3 5 -2 6zM273 215q4 4 2 4q-3 0 -4 -3t-5 -1q-3 1 -3 0q0 -3 4 -3t6 3zM126 212q0 5 -3 1q-2 -3 0 -4q1 -1 2 0t1 3zM312 206q-6 -2 -8 1q-1 2 -11 0q-11 -2 -12 -1q-3 1 -4 -3q-2 -5 -4 -3l-2 -2q-1 -2 -1 -4q-1 -16 -4 -19q-2 -2 -2 -13.5t2 -12.5q3 -2 12 11 q21 28 26 28q3 0 1 4q-2 5 5 10t4 5zM115 200q-3 5 -5 5q-1 0 -5.5 -4.5t-3.5 -5.5q2 -3 1 -3t-5 2l-3 1l3 -4q8 -8 8 -4v4q1 1 2 5t1 5q0 2 6 -2q5 -4 1 1zM259 199q-3 4 -7 0q0 -1 -1 -2l-3 -3q1 1 3 2t4.5 1.5t3.5 -0.5v2zM255 190q2 4 1 3.5t-5 -4.5l-1 -4q1 0 -2 -3 q-3 -2 -3 -2.5t3 0.5q5 2 5 4t2 6zM317 191q6 2 0 2q-2 0 -4 -1.5t-2 -3t2 -2.5q3 -2 2 1q-1 2 2 4zM96 177q0 3 -3.5 3.5t-5.5 -2.5q-4 -4 0 -6q2 -1 2 2t3 3h4zM307 175q0 3 -8 -5l-6 -7l7 6zM260 169q0 5 -6 -3l-3 -4l4 2q5 3 5 5zM87 167q0 2 -8 -6l-6 -6l7 5zM291 158 l2 4q-1 0 -6 -5t0 -5h3t0 1q-2 2 1 5zM256 157l-4 1q-4 0 -6 -2l3 -1q5 0 7 2zM260 152q0 3 -8 -5l-6 -6l7 5zM276 141q4 4 2 4q-1 0 -5 -4t0 -6h2q-1 1 -0.5 3t1.5 3zM273 129q0 1 -2 2q-1 0 -1.5 0.5l-1.5 1.5q-4 4 -6 0v-2q1 1 3 0.5t3 -1.5zM262 125l-4 2q-7 0 -1 -3 q3 -1 5 1zM70 118q0 5 -3 1q-1 -3 1 -4q1 1 2 3zM68 109l-5 5l2 -5q4 -4 5 -4q2 0 -2 4zM266 109l-5 5l2 -5q4 -4 6 -4q1 0 0 1zM260 95q0 -2 -10 6l-10 8l9 -9q9 -10 11 -8q1 1 6 -3q6 -5 6 0q-1 2 -2 3q-2 -2 -6 2zM71 98q-4 4 -5 4q-2 0 2 -4t5 -4q2 0 -2 4zM73 86 q0 4 -4 4t-1 -3q4 -4 2 -6q3 3 3 5zM232 87q-4 4 -5 4q-2 0 2 -4q5 -5 6 -5q2 0 -3 5zM226 81q0 5 -6 -3l-3 -4l4 2q5 3 5 5zM80 76q0 6 -4 1q-1 -3 1 -4q1 -1 2 0t1 3zM293 70q-2 -2 -9 3l-1 -1q5 -6 6.5 -6.5t3.5 3.5v1zM462 70q7 7 5 7q-1 0 -7 -6t-8 -4q-2 1 -6 -3 q-3 -4 0 -6q2 -1 2 2t3 3q4 0 11 7zM477 73q0 1 -1.5 1t-3.5 -1t-3 -2v-1q1 -1 3 0q5 2 5 3zM213 64q1 1 -2 1q-4 0 -7 -5q-3 -3 -2.5 -3t4.5 2zM198 53q0 3 -6 -4l1 -1q5 3 5 5zM305 49q-2 2 -3 2t-3 -2q-1 -3 3 -3t3 3zM316 47q-4 4 -5 4q-2 0 2 -4t5 -4q2 0 -2 4zM438 49 q-2 2 -3 2q-2 -1 -2 -2q-1 -3 2 -3q5 0 3 3zM133 41q-4 4 -5 4q-2 0 2 -4l5 -4q2 0 -2 4zM169 41q0 6 -3 2q-2 -4 1 -4q1 -1 1.5 0t0.5 2zM429 39q1 3 -3 3q-7 0 -2 -4q3 -1 5 1zM404 23q-2 2 -3 2q-2 -1 -3 -2q0 -2 3 -2q3 1 3 2zM361 20q-1 3 -5 3q-2 0 -4 -3 q-1 -1 0.5 -1.5t3.5 -0.5q5 0 5 2zM373 16q1 3 -3 3q-9 0 -1 -3q2 -2 4 0z" />
<glyph unicode="b" horiz-adv-x="386" d="M310 106q8 10 16 2q3 -3 8 -17q2 -10 -1 -12q-5 -3 -5 -9q0 -5 -5 -9.5t-11 -4.5q-9 0 -26 -5q-19 -7 -22 -5l-7 -1q-24 -4 -45 -5q-18 -1 -36 -10q-27 -12 -28 -12q-2 0 -6 -4q-13 -10 -24 -1q-4 4 -1 10q2 5 9 11t9 4t5 1q4 4 9 4q9 2 25 9q22 10 47 13q7 1 15 4 q34 14 59 17q12 1 12 6q-2 9 3 14zM325 98l-5 5q-3 0 4 -7q2 -2 3 -2q2 0 -2 4zM318 94q-1 2 -4 2q-6 0 -2 -2t6 0zM325 90q-1 2 -3 -1l-2 -2t-2 -3q6 4 8 2zM314 88q0 2 -5 -4l-2 -3l-1 -2l3 3q5 3 5 6zM323 79q2 3 1 3q-1 1 -6 -5q-5 -5 2 -5l1 1q-2 2 2 6zM310 76 q-3 -3 -8 1l-3 3q7 -9 11 -6q4 4 4 5t-1 0zM296 74q0 4 -2 1l-1 -4q3 -3 3 3zM265 68q3 3 1 3t-4 -3q-1 -3 -5 -1q-2 1 1 -2q3 -6 5 -6t0 2q-1 1 -0.5 3t2.5 4zM275 68q0 2 -5 -4l-2 -3q-1 -1 -1 -2l3 3q5 3 5 6zM248 58q-2 -2 -12 7l4 -4q9 -7 9 -4zM221 56q0 7 -2 1l-1 -4 q3 -3 3 3zM235 57l-1 1q-6 0 -8 -2q-1 -1 1 -2q5 0 8 3zM205 54q0 5 -7 -4l-2 -3q5 4 7 2q1 3 2 5zM188 46q7 7 6 7q-2 0 -4 -3q-1 -2 -6 0l1 -2q3 -5 -3 -2q-3 2 -3.5 1t1.5 -3q3 -3 8 2zM242 53q0 2 -5 -4q-1 -1 -2 -2.5t-1 -2.5q1 2 3 3q5 3 5 6zM173 41q4 4 2 4 q-1 0 -3 -2q-2 -3 -11 -5q-1 0 -3.5 -1t-3.5 -2q-2 -2 -8 0l-2 1q6 -6 11 -4l4 2q10 4 14 7zM137 27q-3 1 -5 2q-5 0 -1 -2t6 0zM147 30q0 2 -5 -4q-1 -1 -2 -2.5t-1 -2.5q1 2 3 3q5 3 5 6zM131 19q4 2 0 2t-5 -2.5t3 -4.5l1 1q-1 3 1 4zM50 387q8 6 14 0q4 -6 2 -6 q-1 0 0 -4.5t2 -10.5q10 -46 10 -72q0 -3 2 -9q4 -9 5 -17q0 -7 3 -16q3 -10 5 -29l3 -13l2 -7q1 -6 3 -19t3 -19q2 -13 -4 -18q-4 -2 -1 -5q3 0 3 1q-2 3 1 3q4 0 7 -21l2 -19q1 -1 -1 -4.5t-5 -5.5t-4 -1h-1q0 -6 3 -6q4 0 4 5q0 1 2 1q3 0 3 3t3 3t6 5q3 8 9 8q2 0 2 3 t3 2q1 -1 1.5 0t-0.5 2v1q0 5 8.5 12.5t14.5 7.5h1q3 -1 4 0t0 3q-1 5 3 3q4 -1 4 1q0 5 14.5 11.5t26.5 6.5q17 0 47 -10.5t30 -16.5q-2 -3 1 -2q4 0 16 -11t12 -15h-1q-2 2 -7 -2q-6 -7 -14 -4q-3 1 -2 4q2 4 -3 7l1 -1l-1 -2q-1 0 -3 3q-5 7 -8 7q-2 0 -10 4 q-18 10 -41 14l-9 1q-30 0 -45 -15q-8 -8 -10 -6q-1 -1 -2 -3q0 -3 -1 -4t-3 0q-2 0 -3 -1q2 -5 -13 -21q-22 -24 -22 -38q0 -6 -5 -13t-3 -9q1 -1 -2 -3q-5 -4 -12 3q-8 7 -8 27q0 53 -5 73l-2 11q0 5 -1 13.5t-2.5 18t-1.5 12.5q-1 9 -4 21q-2 8 -8 36q-3 23 -6 31l-8 36 q-2 9 -2 11q0 5 -2 7q-2 6 -2 22q0 18 -2 26q-2 5 4 9zM60 369l-2 2l-2 -2q-1 -1 0 -2t2 -1t2 1t0 2zM61 346q-2 2 -3 2q-2 0 2 -4l5 -5q3 0 -4 7zM89 224q0 4 -7 -6q-2 -3 1 -1q6 5 6 7zM91 198q0 5 -3 8h-1q0 -7 2 -9t2 1zM95 177q-1 1 -2 1l-2 -2q-1 -1 0 -2t2 -1 q6 0 2 4zM216 158q1 5 -4 0q-4 -5 -7 -4q-2 1 -2 -1q2 -5 5 -2q4 5 8 1q3 -3 5 0v2q-5 0 -5 4zM99 155q-1 3 -5 3q-7 0 1 -4q4 0 4 1zM231 154q1 3 0 3q-5 0 -5 -6v-2zM241 154l-1 4l-4 -4q-3 -4 0 -4q5 0 5 4zM198 152q3 3 1 3l-5 -5q-3 -3 2 -5l1 -1q-3 4 1 8zM262 150 l-15 5l1 -1q3 -4 11 -7q7 -1 7 1zM188 147q0 11 -14 -5q-7 -7 -4 -7q4 0 4 4q0 2 3 2t3 3q-1 3 0.5 4t5.5 -2q2 -2 2 1zM248 147q-2 2 -3 2q-2 0 2 -4l5 -5q3 0 -4 7zM288 134q-10 12 -14 4l6 -2q4 0 7 -2h1zM158 127q4 4 -2 4q-7 0 -1 -4h3zM102 118q0 4 -5 4q-3 0 1 -4 l3 -4q1 2 1 4zM156 123q0 2 -5 -4q-1 -1 -2 -3l-1 -2q1 2 3 3q5 3 5 6zM309 117q3 3 1 3t-3 -3q-1 -2 -4 -1q-3 2 -3 -1q0 -5 6 -1q2 1 3 3zM144 111q0 2 -2 -1q-1 -2 -2 -3t-2 -3v-1q1 1 2 1q4 2 4 7zM101 106q-2 2 -3 2q-2 0 4 -6q2 -2 3 -2q2 0 -4 6zM138 98q0 6 -2 0 l-1 -4q2 0 3 4zM124 95q2 2 0.5 2t-4.5 -2q-4 -4 -1 -4q4 0 5 4zM131 90q0 4 -8 -6l-5 -6l6 6zM110 84q4 4 3 4q-2 0 -7 -5q-4 -5 0 -8h2q-2 2 2 9zM121 73q-2 2 -8 2l-1 -1q2 -2 8 -2zM105 66q0 4 -5 4q-3 0 0 -4l4 -4q1 2 1 4zM117 68q0 2 -5 -4q-1 -1 -2 -2.5t-1 -2.5 l3 3q5 3 5 6zM110 54v2l-4 -4q-3 -4 0 -4q4 0 4 6zM111 44q0 4 -7 -6q-2 -3 1 -1q6 5 6 7z" />
<glyph unicode="c" horiz-adv-x="342" d="M102 60q0 1 3 1t3 -3q0 -2 -3 -1t-3 3zM173 281q2 6 9 -1q4 -4 1 -13t-13 -9t-18 4l-6 2l2 -2q4 -6 3 -7t-7 4l-3 2q2 -4 -2 -4q-3 0 -1 -3t-1 -2q-2 1 -4.5 -1t-4 -6t-0.5 -7q0 -2 -1 -3q-1 1 -8 -3q-1 -1 -1 -2q3 1 3 0.5t-2 -2.5q-5 -4 -9 0t-8 -1q-4 -4 0 -6 q2 -1 2 0q0 3 3 3q2 0 2 -3q0 -1 3 0l1 -1q0 -1 -2 -3q-9 -10 -19.5 -33.5t-12.5 -35.5q0 -1 -0.5 -4.5t-1.5 -7.5t-1 -7v-6q0 -23 17 -46q10 -13 8 -15t1.5 -5t7.5 -3q2 0 4 -3q5 -9 47 -21q11 -4 26 -4q11 0 13 3q4 4 33 8q37 4 43 8q5 3 10.5 3t8.5 -2t3 -6q-2 -6 -8 -11 q-16 -11 -28 -11l-2 1q0 1 -5.5 0.5t-10.5 -2.5q-27 -10 -74 -10q-21 0 -25 4t-9 4q-8 0 -26 12t-18 17v1q1 3 -2 1q-2 -1 -5 2.5t-8 10.5q-17 26 -17 29q2 0 0 3q-3 6 -3 11q0 2 -1 7.5t-1 8.5q0 8 2 22t2 17q0 7 8 1v1q-5 5 0 17q5 14 9 21q6 10 6 11v2q1 1 2 2.5t1 3.5 q1 6 6 6t3 5q-2 4 1 4q4 0 4 4t9 11q9 8 7 10h4q2 -1 3 -0.5t0 2.5q-2 3 5 8q11 10 12 5q0 -1 -1 -2q-2 -3 2 -3t9 3q6 3 -2 3q-9 0 -1 3q5 2 11 3q11 0 13 -1q3 -1 3 0v4zM167 270q-2 1 -5 1q-6 0 -6 -4t6 -1zM127 250q0 5 -7 -4q-4 -5 1 -1q6 4 6 5zM116 236q1 1 -0.5 2 t-2.5 1q-10 0 -2 -4q3 -1 5 1zM99 212q0 5 -7 -4q-4 -5 1 -1q6 4 6 5zM70 145q0 6 -4 1q-1 -3 1 -4q1 -1 2 0.5t1 2.5zM71 133q0 5 -7 -4q-4 -5 1 -1q6 4 6 5zM68 122q0 5 -7 -4q-6 -8 1 -2q6 4 6 6zM111 48q0 4 -6 -3q-6 -8 1 -2q5 3 5 5zM282 34q4 4 3 4q-3 0 -4 -3 q-1 -2 -4 -1q-3 2 -7 -4q-3 -3 -2.5 -3.5t3.5 1.5q5 4 6 3t5 3zM139 34q0 2 -8 -4l1 -1q7 3 7 5zM264 31q4 4 2 4q-1 0 -5 -4t0 -6h2q-1 1 -0.5 3t1.5 3zM230 28q4 4 2 4t-4 -3q-1 -3 -5 -1q-2 1 -4 -2q-1 -3 -5 -1q-3 1 -4 -1t2 -2q4 -1 7 2q2 2 7 -1l3 -1q-1 1 -0.5 3 t1.5 3zM253 29l-4 2h-2q-6 0 -6 -2q1 -1 6 -1t6 1zM145 25l-1 4l-4 -4q-4 -4 0 -4q5 0 5 4zM240 24q-2 2 -3 2l-2 -2q-1 -1 0 -2t2 -1t2.5 1t0.5 2z" />
<glyph unicode="d" horiz-adv-x="324" d="M258 28q2 4 -1 2l-3 -2t-1 -2q4 0 5 2zM144 41q0 4 -4 4q-5 0 -1 -4l5 -4v4zM107 43q-4 5 -4 -1q0 -2 1 -3t2 0q2 1 1 4zM90 44q-5 5 -6 5q-2 0 3 -5q4 -4 5 -4q2 0 -2 4zM96 47l-5 5l2 -5q4 -4 5 -4q2 0 -2 4zM85 59q-2 -2 -7 2l-1 -1q6 -7 9 -2q1 1 1 2h-1zM164 68 q0 5 -7 -4q-3 -4 -2 -4l4 3q5 3 5 5zM173 80q0 4 -6 -4q-2 -3 1 -1q5 3 5 5zM175 90q-4 5 -4 -2q0 -2 1 -3t2 0q3 1 1 5zM194 155q0 6 -4 1q-1 -3 1 -4q1 -1 2 0.5t1 2.5zM77 161q0 4 -6 -4q-2 -3 1 -1q5 3 5 5zM99 184q0 4 -6 -3l-3 -4l4 2q5 3 5 5zM204 187q0 4 -10 -7 l-7 -8l9 7zM208 198q6 2 0 2q-2 0 -4 -1.5t-2 -3t2 -2.5q3 -1 2 0q-2 3 2 5zM199 227q-2 2 -3 2l-2 -2q-1 -1 0 -2t2 -1q2 0 3 1t0 2zM208 229q-1 1 -3 2q-7 0 -1 -3q2 -1 4 1zM196 298q1 1 -0.5 2t-2.5 1q-7 0 -1 -3q3 -1 4 0zM191 335q0 7 -4 2q-1 -3 1 -4q1 -1 2 0t1 2z M189 350q-4 4 -6 4q-1 0 0 -1l3 -3l5 -5zM186 379q0 5 -7 -4q-2 -3 1 -1q6 4 6 5zM182 402l-4 4q-1 -1 -1 -4t4 -3q6 0 1 3zM170 417q-4 4 -5 4q-2 0 2 -4q3 -5 5 -5q1 0 -2 5zM162 445q5 4 12.5 5t9.5 -3q6 -10 9 -73q2 -23 5 -30q2 -10 2 -15q0 -4 2 -14q0 -2 1.5 -11 t2.5 -14q6 -45 12 -75q1 -2 2 -10t1 -9q1 -7 4 -19q2 -8 2 -12q11 -43 13 -48q15 -37 15 -67v-2q0 -6 2 -6t7 -9q5 -10 10 -10q4 0 4.5 -5.5t-3.5 -7.5q-9 -6 -25 8q-11 9 -18 45q-4 20 -5 24q-3 6 -3 10q0 1 -2 9t-4 13q-4 16 -1 19t1 3h-2q-4 0 -4 9q0 10 -3 11q-2 2 2 7 l1 2q-2 -1 -8 1q-8 4 -11 -4q-1 -2 1 -3h3q0 3 2 3q3 0 3 -4t-9 -43q-10 -42 -20 -57q-6 -8 -6 -10q0 -3 -11 -14q-10 -11 -25 -12q-18 0 -23 2q-2 1 -6.5 2.5t-5.5 1.5q-13 2 -18.5 7t-3.5 13q0 2 -2 0h-2q-7 0 -11.5 18.5t-4.5 41.5q0 9 2 23q2 9 9 25.5t10 17.5q2 2 2 5 q0 4 11.5 8.5t14.5 2.5q2 -2 9 -2h1q6 0 11 -9t5 -18q0 -8 -4 -11q-10 -8 -11 10q-1 16 -15 5q-6 -4 -10 -1l-2 2l2 -4q4 -4 1 -11q-4 -6 -6 -4q-3 2 -3 -2q0 -2 -4 -18q-3 -12 -3 -26q1 -29 -2 -29l-2 -2q2 -3 6 0q4 2 9 -7q7 -13 37 -18q13 -1 18 4q6 4 15 21.5t11 28.5 t4 13q3 6 6 22q4 18 6 23q6 16 6 88q0 19 -2 21q-3 1 -3 9q-1 4 -1 14q-2 8 -3 8q-3 0 -1 5q0 8 -3 22q-5 18 -11 64q-1 6 -2 14.5t-2 14.5t-1 9q-1 10 3 14z" />
<glyph unicode="e" horiz-adv-x="407" d="M146 248q9 4 21 4q18 0 34 -16q9 -10 9 -30q0 -18 -8 -40q-7 -17 -24.5 -37.5t-30.5 -24.5q-19 -6 -51 -8q-11 0 -11 -8q0 -28 15 -36q32 -19 72 -19q68 1 102 11q15 5 24 5q7 0 24.5 9.5t17.5 13.5q0 3 5.5 2.5t11.5 -3.5q5 -3 4 -5.5t-13 -13.5q-15 -14 -32 -19 q-12 -3 -22 -8q-8 -4 -9 -4l-1 -1q-2 0 -4 -0.5t-4 -0.5q-22 -6 -57 -7q-23 0 -47 -2q-20 -2 -29 4q-10 5 -17 5q-44 4 -44 16q0 1 1 2q2 4 -8 8q-7 3 -13 19.5t-6 33.5q0 6 1 9q7 50 20 67q5 7 5 12q0 6 5 4q2 -1 3 -0.5t0 2.5q-2 3 3 5t5 8q0 5 10 17t14 12q5 0 5 3 q0 4 5 2q4 -1 4 2q0 4 10 7zM179 219q-4 4 -9 4t-26 -9q-14 -6 -16 -6l-12 -12q-25 -29 -33 -62l-4 -13l25 1q34 1 51 19q9 10 19.5 27t10.5 22q0 4 3 3v4l-3 6q-2 3 -3 5.5t-1 3.5v2q1 0 -2 5zM203 211q1 1 -0.5 1.5t-3.5 0.5q-6 0 -1 -3q4 -2 5 1zM112 207q3 3 -3 3 q-8 0 -1 -4q3 -1 4 1zM199 182q-1 3 -3 3l-2 -3q-1 -2 2 -2q3 1 3 2zM78 106q-3 5 -5 5q-1 0 2 -5t6 -5zM75 83q3 5 2 5t-3 -3q-2 -4 -5 -2q-4 2 -4 0q0 -3 4 -3t6 3zM75 67q-3 5 -5 5q-1 0 2 -5t5 -5q1 0 -2 5zM91 48q-3 4 -5 4q-1 0 2 -4q3 -5 6 -5zM281 30q1 1 -0.5 1.5 t-3.5 0.5q-4 0 -6 -2q-1 -2 2 -2zM227 25q-3 5 -5 5q-1 0 2 -5t5 -5q1 0 -2 5zM218 25q0 7 -7 -4q-4 -5 1 -1q6 4 6 5zM164 20q-6 6 -13 0l7 -2q6 0 6 2zM180 19q-3 3 -7 3l-3 -1q3 -3 8 -3z" />
<glyph unicode="f" horiz-adv-x="216" d="M91 535q10 7 18 0t4 -11q-1 -1 -3 0t-1 -1q2 -2 5 -2q2 0 8 -19t8 -33q2 -12 3 -13q2 -2 4 -22q1 -16 4 -26q1 -6 1 -22q0 -33 -7 -75q-1 -5 -2 -13t-2 -12.5t-1 -6.5q-4 -36 -11 -49q-4 -8 -2 -14q3 -9 3 -22q2 -26 12 -67q0 -2 1 -7.5t2.5 -12t2.5 -12.5q5 -23 7 -25 t2 -11q0 -8 7 -11q11 -6 2 -25q-2 -3 -2 -4v-2l-1 -4q-3 -3 -9 2q-8 5 -11 29l-1 5q-1 4 -2 9q-2 8 -3 11q-2 5 -4 13q-4 18 -4 19q-3 7 -5 16q0 1 -5 27q-4 22 -4 27q-2 15 -14 -8l-7 -12l-12 -2q-11 -1 -15 5q-5 10 -5 13q0 1 -1 4l-1 4q-2 2 -2 8t3 8q3 3 10 -5 q7 -9 7 -10v-2l1 -2q1 -4 10 10l7 12l4 6t4 4l2 2q2 -1 1 1q-1 1 -3 22q-2 19 -4 26t-4 22q-2 18 -3 21t-3 31q0 5 -0.5 13t-1 13t-0.5 7q0 1 -3 20q-1 4 -2 15t-1 14q-1 9 -1 28q0 3 1 13t1 13q4 61 13 61h1q1 -1 1.5 -0.5t-0.5 2.5q-2 4 3 7zM105 518q0 5 -5 -3l-2 -4l3 2 q4 3 4 5zM112 513q-2 6 -7 -1l-2 -4l3 2q4 4 6 2v1zM111 502q6 6 4 6l-4 -4q-4 -4 -7 -3q-2 1 -3 -0.5t-2.5 -5.5t-2.5 -10q-2 -7 -3 -8q-2 -2 -2 -9q0 -6 -3 -6q-4 0 -2 -3q3 -6 3 -25q1 -40 12 -127q3 -21 3 -34q0 -8 2 -8t1 -2t2.5 -2t5.5 2l-1 1q-2 -2 -2.5 -1.5 t0.5 3.5q1 2 0.5 3t-2.5 0t-2 -0.5t2 2.5q3 6 3 10q0 1 3 13q3 10 7 54q2 24 2 42q0 20 -2 34q0 3 -1 10.5t-2 10.5q-2 12 -3 13q-3 6 -5 19q-2 10 -4 14q-2 6 3 11zM117 493q1 1 0 2t-3 1q-9 0 -1 -4q1 -2 4 1zM91 491q-1 1 -3 2q-3 0 -5 -2q-1 -2 2 -2q4 -1 6 2zM85 478 q-4 4 -5 4q-2 0 2 -4l4 -4zM136 370q0 7 -3 1q-1 -2 1 -4q1 1 2 3zM94 303q0 4 -3 4q-4 0 -1 -4l4 -4v4zM99 267q0 7 -3 1q-1 -2 1 -4q1 1 2 3zM104 257l-2 2q-1 0 -3 -2q1 -1 3 -2q4 0 2 2zM108 250q0 2 -7 -6l-5 -6l6 5zM111 230q0 6 -6 -4q-2 -3 1 -1q5 3 5 5zM111 210 q0 2 -7 -6l-5 -6l6 5zM99 194q2 2 1 2.5t-5 -2.5q-3 -3 -1 -3q4 0 5 3zM112 187q-2 6 -7 -1l-2 -4l3 2q4 4 6 2v1zM121 149q-1 1 -2 3t-2 2l2 -5l4 -4q2 0 -2 4zM123 135q0 4 -1 4t-2 -5q0 -2 -2 -6q-2 -2 -1.5 -2.5t2.5 1.5q4 4 4 8zM126 124q0 4 -5 -4q-2 -3 1 -1q4 3 4 5 zM126 101l-4 4q-2 0 2 -4l4 -4q2 0 -2 4zM135 76q1 1 0 2t-2 1q-9 0 -1 -4q1 -1 3 1zM142 58q0 5 -5 -3l-2 -4l3 2q4 3 4 5zM146 48l-1 2q0 1 -1 1l-3 -3q1 -1 3 -2q4 0 2 2z" />
<glyph unicode="g" horiz-adv-x="357" d="M204 178q11 10 25 10q13 0 16 -5q5 -10 5 -27q0 -7 -2 -17l-2.5 -10t-1.5 -7q-3 -8 -4 -10q-3 -5 -3 -10q0 -2 -8 -16q-9 -16 -9 -17q0 -3 -3 -5q-4 -2 -4 -5q1 -4 12 -19.5t17 -21.5t4 -7q-1 -1 0 -2t2 -1q3 0 7 -4q29 -37 29 -43q0 -3 9 -17q4 -7 6.5 -11t1.5 -4t2 -5 q14 -19 14 -32q0 -8 -4 -15q-7 -14 -15.5 -18t-31.5 -4h-12q-11 0 -27 0.5t-22 0.5q-19 0 -39 -2q-15 -1 -24 4q-8 5 -7 13q3 12 13 12q3 0 7 -2.5t5.5 -6t0.5 -4.5l2 1q2 2 27 4l24 2q0 2 62 4l11 2q-1 1 2 3q3 3 3 5q1 5 -1.5 13.5t-4.5 8.5t-2 3t-4 5q-3 1 -3 10 q0 8 -3 8t-3 3q0 4 -3 6q-1 1 -13 20q-5 8 -9 12.5t-5 3.5l-1 1q2 2 -5 7q-7 6 -5 8q1 1 0 2t-2 1q-4 0 -11 11t-6 15q1 3 -1 3q-4 -1 -6.5 0.5t-1.5 4.5q2 6 -1 2q-2 -1 -9 -8q-17 -19 -48 -19q-23 0 -40 10q-34 17 -34 24h1q3 0 -3 6q-11 12 -11 48q0 24 9 42q14 30 39 30 q7 0 11 -1q9 -2 15.5 -12t6.5 -18t-5 -9q-5 -2 -8.5 0t-1.5 6q2 5 -1 8t-1 5q1 1 -2 3t-2 -1q2 -4 -6 -3h-5q-6 0 -7 -2q-2 -4 -5 -2q-2 1 -1 -1q2 -3 -6 -13q-12 -18 -12 -32q0 -4 2 -14q5 -18 10 -25q7 -9 5 -11h1q3 2 7 -2q16 -15 39 -15h5q10 1 23 6.5t13 9.5v1q1 1 3 2 q4 0 -1 9l-1 3q-11 19 -11 39q0 6 2 16q3 12 13.5 31.5t18.5 27.5zM242 174q0 2 -5 -4q-3 -4 1 -1t4 5zM212 167q-2 3 -3 4t-2.5 0t-4.5 -5q-8 -9 1 -2q5 6 9 2v1zM234 158q-2 2 -3 2q-7 0 -11 -2q-5 -2 -6 -1v-3q1 -3 0.5 -3.5t-3.5 0.5q-5 1 -3 0t-2 -5l-1 -4l-1 -2 q0 -1 -1.5 -4t-2.5 -6q-8 -15 -8 -25q0 -4 2 -12q4 -11 2 -12q-2 -2 2 -2q3 0 0 -4t-9 1l-6 5l6 -7l5 -6l7 8q8 8 6 11q-1 2 4 9q4 4 10 26.5t6 30.5v2q1 1 1 2q1 -1 6 1zM91 151l2 5q-1 0 -3 -3q-1 -2 -4 -1q-3 2 -3 0t1.5 -2.5t3.5 0t3 1.5zM240 149q0 3 -6 -4q-3 -4 1 -1 q5 3 5 5zM194 140l-2 2q-1 0 -3 -2q-1 -1 0 -2t3 -1q1 0 2 1t0 2zM82 136q-1 1 -3 2q-7 0 -1 -3q2 -1 4 1zM241 131l-1 1q-1 2 -2 2t-1 -1l-1 -2q-2 -2 2 -2q2 1 3 2zM191 125q2 2 -2 2q-7 0 -1 -3q1 -1 3 1zM183 112l-1 2l-1 1l-3 -3q1 -1 3 -2q4 0 2 2zM230 101q-1 1 -3 2 q-7 0 -1 -3q2 -2 4 1zM185 89q3 3 -3 3t-3 -3t6 0zM72 86q0 3 -5 -3t1 -2q4 3 4 5zM211 74l3 5q-2 -1 -7 -6q-7 -7 -2 -7q2 1 3 2q-1 1 3 6zM71 73q-1 -1 -3.5 -0.5t-3.5 1.5q-2 1 -3 2l3 -3q4 -5 7 -2q1 1 1 2t-1 0zM208 59q-2 -3 -8 3q-3 2 -4 4q2 -2 4 -5q5 -6 5.5 -6 t3.5 3zM83 48l-4 4q-2 0 2 -4l4 -4q2 0 -2 4zM106 33l-2 2q-1 0 -3 -2q1 -1 3 -2q4 0 2 2zM172 30q-1 1 -3 2q-7 0 -1 -3q2 -1 4 1zM151 20q1 1 0 1.5t-4 1.5t-3 0.5t2 -2.5q3 -3 5 -1zM237 14q-3 1 -8.5 1t-6.5 -2q-2 -3 2 -3q3 -1 5 1q5 2 7 0q3 -3 5 0q1 2 -1 2l-1 1h-2z M244 2q1 1 -0.5 2t-2.5 1q-9 0 -1 -4q2 -1 4 1zM251 2q0 4 -6 -4q-3 -4 1 -1q5 3 5 5zM258 -7q0 2 -2 3t-4.5 -0.5t-4.5 -3.5q-3 -4 1 -1q5 3 7 1q3 -3 3 1zM268 -28q1 1 -0.5 2t-2.5 1q-9 0 -1 -4q2 -1 4 1zM268 -39q1 1 -0.5 2t-2.5 1q-7 0 -1 -3q2 -2 4 0zM278 -37 q0 5 -6 -3q-3 -4 1 -1q5 3 5 4zM292 -67q-7 7 -8 7q-2 0 5 -7t8 -7q2 0 -5 7zM311 -100l-4 4q-4 3 -6 0v-2q3 2 6 -1zM303 -105q0 5 -6 -3q-5 -6 1 -2q5 3 5 5zM307 -116q0 3 -1 4l-6 -6q-6 -6 -2 -9h1q-2 2 1 5.5t5 2.5q1 1 2 3zM264 -129q0 9 -4 1q-1 -3 -5 -1l-1 -1 q3 -3 6.5 -2.5t3.5 3.5zM289 -133q0 1 -4 5q-4 2 -6 -1v-1q3 2 6 -1q4 -4 4 -2zM183 -132q-2 -2 -6 2q-6 4 -1 -2q2 -3 5.5 -3t3.5 3q0 2 -2 0zM148 -134q-1 1 -3 2q-7 0 -1 -3q2 -1 4 1zM161 -136l-2 2q-1 0 -3 -2q1 -1 3 -2q4 0 2 2zM254 -137q-1 -1 -3 -0.5t-3 1.5 q-4 3 -1 -1q2 -3 5.5 -3t3.5 3q0 2 -2 0z" />
<glyph unicode="h" horiz-adv-x="329" d="M58 327q4 3 8 -5t6 -33q3 -37 3 -40q2 -16 2 -24q0 -10 2 -12t6 -26q11 -61 20 -89q7 -21 7 -26q0 -4 2 -4q4 0 2 -3q-2 -2 -5 -1q-2 1 -1 -1q2 -3 11 7q10 12 11 14q2 4 16 11t27 7q16 0 51 -13q13 -5 16 -8q1 -2 4 -2q5 0 16 -10t15 -18q5 -10 4 -30q-1 -29 -6 -38 q-3 -5 -1 -7q1 -1 -2 -1t-3 -4q0 -3 -6 -15q-11 -21 -21 -7q-5 6 0 15q1 2 3 1q1 1 2 1q-2 2 6 25q8 24 8 29q0 13 8 7l3 -2q0 1 -3 4q-3 5 -5 3q-1 -1 -2 1t-3 5q-5 10 -10 15q-7 7 -5 8h-3q-5 -2 -8 4q-4 6 -7 6t-13 4q-8 5 -29 5q-16 0 -20 -1t-9 -8q-7 -9 -10 -7 q-1 1 -2 -0.5t0 -3.5q1 -4 -3 -11q-3 -6 -5 -16q-5 -29 -13 -29q-3 0 -9 3q-7 3 -7 11q0 7 -6 27q-3 9 -6 29q-2 9 -4 14q-3 5 -4 12q0 2 -1 8t-2 8t-2 6.5t-1 6.5q-2 10 -3 11q-1 2 -1 9q0 6 -2 8q-3 3 -3 9t-3 15q-4 11 -2 14t0 5q-5 3 -7 25q0 5 -4 19q-3 11 -5 36 q0 5 -0.5 12t-1 10.5t-0.5 4.5q-1 3 2.5 10.5t7.5 9.5zM61 300q-5 5 -6 5t0 -1l4 -4q5 -5 6 -5t0 1zM67 276q-4 6 -8 0q-2 -2 1 -4l1 1q-2 2 0 2h3q3 0 3 1zM68 267q0 3 -6 -4q-3 -4 1 -1q5 3 5 5zM66 247l-2 2l-2 -2q-2 -2 2 -2t2 2zM71 240q0 5 -6 -3q-5 -6 1 -2q5 3 5 5z M76 189l-4 4q-2 0 2 -4l4 -4q2 0 -2 4zM97 103q-5 5 -7 5q-1 0 0 -1l4 -4l6 -6q3 0 -3 6zM178 95q1 1 -3 1t-5 -1l4 -1q3 0 4 1zM102 90q-2 2 -3 2l-2 -2q-1 -1 0 -2t2 -1t2.5 1t0.5 2zM165 89q-2 2 -6 2h-3t0 -1q2 -2 6 -2h3t0 1zM158 82l-4 4q-4 3 -6 0v-1q1 1 3 0.5 t3 -1.5q4 -4 4 -2zM220 86q0 4 -6 -4q-3 -4 1 -1q5 3 5 5zM228 83q0 2 -5 -4q-3 -4 1 -1t4 5zM144 80q0 4 -6 -3q-3 -4 1 -1q5 3 5 4zM130 61q4 4 2 4t-3 -2q-2 -3 -4 -2l-3 1q0 -2 3 -2.5t5 1.5zM118 57q3 3 1 3q-1 0 -3 -3t-4 -1t-4 -1q-1 -2 2 -2zM139 59q0 3 -7 -5 l-6 -6l7 5zM262 54q-2 -2 -6 1t-1 -1q2 -3 5.5 -3t3.5 3q0 2 -2 0zM116 47q2 2 1 2t-5 -2q-3 -3 -1 -3q3 0 5 3zM127 43q0 7 -3 1q-2 -2 1 -4q1 1 2 3zM122 37l-4 4q-2 0 2 -4l4 -4q2 0 -2 4zM115 33q2 2 -2 2q-7 0 -1 -3q1 -1 3 1zM277 24q0 3 -7 -5l-5 -6l6 5zM270 -4 q-1 1 -3 2q-7 0 -1 -3q2 -1 4 1zM265 -20l-1 1q-1 2 -2 2t-1 -1l-1 -2q-2 -2 2 -2q2 1 3 2zM261 -27q-1 0 -2 1q-2 2 -3 2q-2 2 -2.5 1.5t1.5 -2.5q5 -5 8 -5q4 0 2 2q-1 1 -4 1zM259 -39q-2 2 -5.5 2t-4.5 -1q3 -1 5 -2zM254 -47q-1 1 -3 2q-7 0 -1 -3q2 -2 4 1z" />
<glyph unicode="i" horiz-adv-x="174" d="M89 194q9 1 12 -3t1 -18q-1 -8 -1 -38q0 -61 4 -71q0 -1 5 -17q4 -13 0 -15q-3 -1 -1 -9q1 -7 -4 -8h-2q-12 0 -15 32q-2 26 -3 29q-1 4 -3 36q-2 23 -4 38q-1 4 -1 15q0 18 4 24q1 3 8 5zM91 182q0 3 -4 0q-2 -1 -2 -2q-1 -3 2 -1q4 2 4 3zM97 179q0 4 -7 -6l-5 -7l6 6z M97 170q0 4 -6 -4q-2 -4 -2 -4.5t3 2.5q5 3 5 6zM90 153q-4 -3 -7 0l-1 1q0 -1 1 -2q4 -6 7 -3t5 1v2q-2 6 -5 1zM93 137q2 4 -1 2q-1 0 -3 -2q-3 -3 -1 -3q4 0 5 3zM93 117q0 7 -3 1q-1 -2 1 -4q1 1 2 3zM96 67q0 7 -3 1q-1 -3 0 -4t2 0.5t1 2.5zM44 336q3 3 13 3t10 -5 q0 -6 6 -10t4 -7q-1 -3 2 -1q2 1 5 -5q1 -1 1 -2q5 -11 3 -14t-13 -2t-15 4t-2 8q1 2 0.5 2.5t-2.5 -1.5t-2 0q0 1 1 3q0 3 -1 4q-3 -2 -6.5 3t-4.5 10.5t1 9.5zM63 326q1 1 0 2t-3 1q-6 0 -1 -4q2 -2 4 1zM74 302q2 2 -3 4q-3 2 -3.5 1t1.5 -3q3 -4 5 -2z" />
<glyph unicode="j" horiz-adv-x="273" d="M168 157q4 1 9 1q6 0 8 -2t4 -12q7 -31 8 -41q2 -19 8 -30q5 -10 5 -22q0 -7 3 -22q6 -27 6 -54q0 -39 -10 -60q-3 -6 -3 -11q0 -4 -8.5 -16t-11.5 -12q-2 0 -4 -5q-3 -8 -15 -19.5t-17 -11.5h-1q-1 -1 -2 -1q1 -2 -2.5 -4t-13.5 -6q-6 -3 -25 -3q-18 0 -32 9 q-29 20 -33 48q-2 18 -2 27q0 29 7 36q5 5 4 17q0 5 4 5t6 -5t0 -9q-5 -8 -5 -48q0 -13 6 -27q7 -14 7 -18q0 -3 3 -2q4 2 14 -8q11 -10 21 -9q10 2 13 -1h1q-1 2 1.5 4t8.5 5q15 8 27 21q15 16 17 14q1 1 1 3q-2 3 1 6q2 2 1 4t0 2.5t2 -0.5q4 -1 4 3t2 4q3 0 2 2 q-1 1 0 3.5t2 3.5q4 6 7 18q3 10 3 37q0 35 -4 41q-4 4 2 4h3q2 0 0 2t-5 2q-2 0 -6 18q-4 22 -5 23q-7 16 -7 43q0 10 -2 10q-3 0 -3 5q0 7 -3 16q-3 15 -1 22zM183 149h-3h-3t0 -1q2 -2 -2 -6q-1 -1 -1 -2q1 0 4 3zM184 140l-2 2l-2 -2q-1 -1 0 -2t2 -1t2 1t0 2zM187 118 l-2 2q-1 0 -3 -2q1 -1 3 -2q4 0 2 2zM193 90q0 4 -1 3l-5 -6l-1 -2q4 3 5 2q1 1 2 3zM198 68q0 7 -3 1q-1 -1 0 -3q1 -1 2 0t1 2zM206 52q0 3 -8 -6l-6 -7l7 6zM205 39q0 7 -3 1q-2 -2 1 -4q1 1 2 3zM211 27q0 2 -3 3t-5 -1q-5 -2 -6 -1v-1q2 -4 6 -1q5 2 6 1q2 -2 2 0z M209 15q1 1 0 2t-2 1q-6 0 -1 -3q2 -1 3 0zM210 9q3 2 3 3l-6 -3q-4 -3 -1 -5h2q-2 2 2 5zM212 -4q0 5 -2 1q-2 -2 0 -4q1 1 2 3zM214 -13l-2 2l-2 -2q-1 -1 0 -2t2 -1t2 1t0 2zM211 -26q-4 4 -5 4q-2 0 2 -4l4 -4zM212 -50q0 5 -2 1q-2 -1 0 -3q1 -1 1.5 -0.5t0.5 2.5z M212 -60q-2 2 -5 2h-3t0 -1q2 -2 6 -2q3 0 2 1zM211 -66q0 4 -5 -1l-1 -2q-3 -4 1 -1q1 1 3 2t2 2zM198 -90l-4 4q-2 0 2 -4l4 -4q2 0 -2 4zM198 -98l-4 4q-2 0 2 -4l4 -4q2 0 -2 4zM193 -101l-4 4q-2 0 2 -4l4 -4q2 0 -2 4zM51 -108q-1 1 -3 2q-6 0 -1 -3q1 -1 4 1z M194 -109q-2 -1 -5 2q-4 3 -1 -1q2 -3 5 -3t3 3q0 1 -2 -1zM57 -123q0 2 -3 5q-5 3 -6 -1v-1q2 2 6 -1q3 -3 3 -2zM170 -129q-3 5 -6 5l3 -5t6 -5zM53 -132l1 3q-1 0 -3 -2q-2 -3 1.5 -5t5.5 1q2 1 1 2t-3 0q-3 0 -3 1zM161 -130q0 4 -5 -4q-3 -4 1 -1q4 4 4 5zM169 -139 q0 2 -3 2t-6 -2q-3 -3 -2 -3q2 0 4 2q2 3 4 1q1 -1 2 -1t1 1zM77 -149q0 2 -3 2t-5 -2q-3 -3 -5 -2h-1l1 -3l5 -5q1 0 0.5 0.5l-1.5 1.5q-2 2 1.5 5.5t5.5 2.5q2 -2 2 0zM153 -149l-1 4q-2 -2 -3 -4q-2 -3 1 -3t3 3zM87 -157q-2 0 -4 2q-4 2 -7 -3l1 -1q3 3 6 1q2 -2 5 -2 t2 1q-2 2 -3 2zM138 -160q0 7 -3 1q-1 -1 1 -3q1 -1 1.5 -0.5t0.5 2.5zM129 -163l-4 4l1 -4q4 -4 5 -4q2 0 -2 4zM176 279q8 3 12 -2q4 -4 2 -4t2 -9q7 -19 -2 -28q-4 -4 -8 0q-3 3 -2 6l-1 1q-2 -1 -4.5 3t-4 11t-1.5 12q1 9 7 10zM184 270q-2 2 -5 2t-4 -1l5 -2zM187 263 q-2 2 -4 2q-1 0 -3 -2q1 -1 3 -2zM185 254l-5 2l-5 -1q2 -2 5.5 -2t4.5 1z" />
<glyph unicode="k" horiz-adv-x="382" d="M48 369q6 8 12 0q3 -6 3 -17q0 -6 5 -34q4 -22 4 -27q0 -7 3 -9t3 -7t5.5 -30t8.5 -33t-1 -11q-5 -4 0 -6q4 -2 6 -8q10 -41 13 -68q0 -11 4 -19q2 -4 2 -5.5t-1 -2.5q-3 0 0 -4q4 -4 4 -14q0 -5 3 -17l3 -12q1 -3 1 -6q1 -4 7 6q2 2 2 4q0 4 4 13t7 10q3 3 3 7 q0 5 11 25t10 21t-3 10q-1 7 3.5 12t12.5 4q6 -1 7 1q-2 2 1 2q1 0 2 1t0 2q-2 2 9 19q12 18 12 19q0 3 4 1q2 -1 3 -0.5t0 2.5q-1 3 6 10.5t10 5.5q3 -1 1 2q-2 2 7 10.5t13 7.5q10 -1 10 -12q0 -7 -10 -12q-12 -7 -22 -19l-11 -11l-4 -6q-4 -9 -8 -6q-4 2 -6 -1 q-1 -2 1 -1q5 3 5 -2q0 -4 -4 -9q-11 -13 -11 -24q0 -4 2 -6q6 -6 7 -8l17 -17q13 -13 27.5 -31t14.5 -21v0h1q3 1 7 -5t12 -14q9 -9 9 -12t12 -12t12 -13q0 -3 13 -14t10.5 -15t-19.5 3q-7 4 -7 6q0 4 -9 11t-6 10q2 2 -2 2q-3 -1 -9 5.5t-4 8.5q1 1 -1 1h-2q-4 -1 -4 1 t-13 15t-11 16q1 2 -1 1t-5 1.5t-3 6.5q0 2 -3 2q-5 0 -6 4q-2 6 -4 6t-1 2q1 3 -5 6q-8 4 -9 8q-2 5 -6 5q-5 0 -3 6q0 3 -1 4q-3 -2 -7.5 0.5t-2.5 5.5t-1 2q-3 -2 -3 1q0 2 -3 2.5t-6 -1t-4 -3.5q-2 -6 -7 -16q-7 -14 -7 -18q0 -5 -6 -15q-1 -2 -2.5 -4t-2.5 -3.5l-2 -3 t-1 -2.5q-2 -11 -10.5 -21.5t-14.5 -10.5h-1q-12 4 -16 18q-1 2 -2 7t-1 7q-1 2 -2 8t-1 8t-0.5 7.5t-1.5 7.5q-3 8 -4 18q-2 18 -3 21t-3 19q-2 13 -5 15q-5 2 -2 7q2 6 0 10q-2 5 -1 6q3 2 -3 19q-1 4 -2.5 9t-2.5 9.5t-1 5.5q0 2 -1 7.5t-1 7.5q0 1 -1.5 4.5t-2.5 7.5 t-1 7q-1 4 -3.5 14.5t-3.5 13.5q-1 4 -3 13.5t-3 12.5q0 3 -8 25q-4 12 -4 19q0 8 1 14q2 12 3 14zM256 226q0 4 -6 -4l1 -1q5 3 5 5zM99 148q1 1 0 2t-3 1q-7 0 -1 -3q3 -1 4 0zM184 132q-2 -2 -7 1q-2 1 -3 2q2 -1 3 -3q3 -3 6 -3t3 3q0 2 -2 0zM188 124q0 4 -6 -4l1 -1 q5 3 5 5zM200 118q0 4 -6 -3l1 -1q5 3 5 4zM163 75q0 5 -6 -3q-3 -3 -2.5 -3.5t3.5 1.5q5 3 5 5zM249 60q-1 1 -3 2q-7 0 -1 -3q2 -1 4 1zM149 54q3 3 2 3q-2 0 -5 -3t1 -6h1q-2 2 1 6zM141 36l-1 2q0 1 -1 1l-3 -3q1 -1 3 -2q4 0 2 2zM269 30q-1 1 -3 2q-7 0 -1 -3 q2 -1 4 1z" />
<glyph unicode="l" horiz-adv-x="190" d="M44 454q3 5 7 5q5 0 9.5 -6.5t5.5 -14.5q0 -9 3 -12q2 -2 2 -9q0 -5 4 -29q1 -7 3 -19t2 -14q8 -64 16 -91q4 -16 5 -25l2 -18q1 -1 3 -12q2 -14 3 -16q2 -6 2 -14q0 -9 7 -46q5 -27 8 -58q2 -18 6 -33q3 -14 -1 -19q-4 -6 -8 -4q-3 1 -6.5 17t-4.5 30q0 11 -3 17 q-1 2 -1 2.5v1.5q1 0 1 1q0 6 -8 49q0 1 -5 31q-4 28 -9 50q-4 18 -7 37q-3 15 -4 19q-3 8 -3 16q0 7 -2 7q-3 0 -1 3q1 2 -1 13l-2 10q-2 10 -3 14q-2 16 -3 18q-2 7 -1 9v1q0 17 -9 42q-2 4 -2 6q0 3 -3 8q-5 12 -5 22q0 8 3 11zM55 445q-1 1 -2 3l-2 2l2 -5l4 -4 q2 0 -2 4zM79 329l-5 5l2 -5l4 -4zM95 227q2 2 -2 2q-5 0 -1 -3q2 -2 3 1zM113 126q1 1 0 2t-2 1q-6 0 -1 -4q2 -2 3 1z" />
<glyph unicode="m" horiz-adv-x="428" d="M293 222q11 6 23 4q8 -1 18.5 -7.5t10.5 -10.5q0 -3 5 -8q14 -14 14 -48q0 -12 -3 -24q0 -2 -2 -9.5t-3 -10.5q-1 -4 -12 -36q-14 -36 -14 -50q0 -5 1 -6q4 -8 -4 -7q-5 0 -10 5t-3 5t-1 5q-3 6 3 27q8 24 8 25q0 2 2 4q3 3 4 8q1 6 6 21q2 4 2 11q0 1 3 13q2 10 2 14 q0 13 -6 32q-5 17 -18 23q-10 5 -19 1t-18.5 -10.5t-9.5 -8.5q0 -3 -5 -6q-6 -4 -6 -5q0 -4 -12 -16q-21 -21 -21 -32v-1q0 -2 -3 -4q-4 -2 -4 -4q0 -4 -5 -9q-6 -6 -7 -9q-2 -7 -11.5 -3.5t-9.5 10.5q0 6 5 20.5t8 18.5q4 6 1 13q-4 10 -8 12q-26 13 -38 16q-23 6 -31 -2 q-3 -3 -3 -50q0 -22 2 -64q0 -5 0.5 -13.5t0.5 -11.5q0 -11 -2 -13q-2 -1 -2 -10q0 -14 -17 -2q-7 6 -5 9q3 3 6 2t1 2t-6 1t-9 7q-5 8 -4 8q1 1 -3 5t-10.5 16t-6.5 17q0 4 -3 4q-2 0 -9 14t-7 19q1 4 3 4q2 -1 3 0t1 5v4t2 2t3.5 1.5t7.5 1.5q3 1 4 -1t2 -9q2 -22 13 -45 q4 -8 3 -9t0.5 -1.5t3.5 -0.5q4 0 5 5t1 34q0 40 3 51q3 12 2 15q-1 1 2 4q3 2 3 8q0 18 22 18q5 0 8 -1l16 -4q7 -2 30.5 -14t23.5 -14q0 -1 3 0q2 1 4 -1.5t2 -5t-1 -4.5q1 -2 4 -3q6 0 6 2q-1 5 4 10.5t12 6.5q2 0 2 4q0 5 2 5q3 0 11 6.5t8 9.5q0 4 4 2q3 -1 3 1 q-1 2 2 4t17 8zM304 217l-1 3q-2 -1 -4 -3q-3 -4 1 -4t4 4zM312 216q0 8 -3 2q-2 -2 0 -4q1 -1 2 0t1 2zM324 214l1 4q-1 0 -3 -3q-1 -3 -5 -1q-2 1 -1 -0.5t2 -2.5q4 -4 5 -4t0.5 0.5l-1.5 1.5q-2 1 2 5zM292 209q-2 2 -6 2q-3 0 -2 -1q2 -2 6 -2q3 0 2 1zM149 199l-1 1 q-1 2 -2 2t-1 -1l-1 -2q-2 -2 2 -2q2 1 3 2zM126 195q4 4 2 4t-3 -3t-5 -1q-2 1 -2 0q0 -2 3 -2t5 2zM272 198q0 4 -6 -4q-3 -4 1 -1q5 3 5 5zM258 179q4 4 2 4t-3 -3q-1 -2 -4 -1t-3 0q0 -2 3 -2t5 2zM243 173l-2 2q-1 0 -3 -2q1 -1 3 -2q4 0 2 2zM357 172q-1 1 -3 2 q-7 0 -1 -3q1 -1 4 1zM238 164q-1 1 -3 2q-7 0 -1 -3q2 -1 4 1zM213 161q-4 4 -5 4q-2 0 2 -4l4 -4zM360 162l-1 1q-1 2 -2 2t-1 -1l-1 -2q-2 -2 2 -2q2 1 3 2zM234 156q3 3 2 3q-2 0 -3 -2q-1 -3 -5 -1q-3 2 0 -3q4 -4 5 -4t0 1t-0.5 3t1.5 3zM217 148q-3 5 -7 -1 q-3 -3 -3 -4l3 2q1 1 3.5 2t3.5 0v1zM214 136q1 1 0 1h-3q-3 0 -5 -2l4 -1q3 1 4 2zM111 130q-5 5 -6 5q-2 0 3 -5t7 -5q1 0 0 1zM222 133q-2 2 -3 2l-2 -2q-2 -2 2 -2q2 1 3 2zM216 124q1 1 0 2t-2 1q-7 0 -1 -3q1 -2 3 0zM112 113q0 7 -3 1q-1 -2 0 -3t2 0t1 2zM206 108 q-2 -2 -8 3t-1 -1t5.5 -6t3.5 3v1zM345 102q-4 4 -5 4q-2 0 2 -4t5 -4q2 0 -2 4zM331 63l-4 4q-2 0 2 -4l4 -4q2 0 -2 4zM106 58q1 3 0 4q-1 0 -5 -5l-1 -3q2 2 6 -1q3 -3 5 0q2 2 -2 2q-3 0 -3 3zM104 50q0 2 -5 -4q-3 -4 1 -1t4 5zM119 40q2 2 -3 6q-4 3 -1 -1q5 -5 0 -6 l-2 -1h1q3 0 5 2zM325 41q0 4 -3 4q-4 0 -1 -4l4 -4v4z" />
<glyph unicode="n" horiz-adv-x="327" d="M172 246q10 5 20 5q9 0 18 -3q8 -3 21 -17.5t13 -20.5t4 -8q15 -10 15 -64q0 -30 -2 -40q0 -1 -1 -5.5t-2 -8t-1 -6.5q-2 -12 -2 -19q-1 -12 -4 -17t-9 -4q-8 1 -8 20q0 2 3 44q2 30 2 38q0 26 -6 44q-1 4 -1.5 7.5t0.5 4.5h-2q-4 -2 -6 3q-2 7 -12 16t-15 9 q-22 0 -41 -44q-14 -34 -16 -58q-4 -24 -8 -24l-1 1q-1 -1 1 -4q4 -5 0 -21q-4 -17 -3 -18t-3 -14t-6 -15q-1 -1 -3 -10q-1 -7 -3.5 -9t-9.5 0q-8 2 -20.5 28t-15.5 45q-2 16 -10 44q-6 23 -3 31t8 8q2 0 1 4q-2 4 6.5 8.5t11.5 1.5q3 -4 3.5 -15t-1.5 -12q-3 -1 -3 -19 q0 -26 5 -36q5 -11 6 -20q2 -11 8 -17q3 -3 4 -2q-2 4 1 4t3 6q0 1 1 7.5t3.5 20t3.5 22.5q7 42 9 51q1 7 7.5 22.5t11.5 21.5q4 6 8 4q2 -1 1 1l-1 2q0 6 6.5 14.5t13.5 12.5zM184 240q0 4 -4 -2q-1 -1 -2.5 -2t-2.5 0q-1 -1 -2 -3l1 -3l4 4l3 3q3 2 3 3zM167 227q1 3 -3 3 q-6 0 -1 -4q3 -1 4 1zM234 210q2 3 -3 3q-7 0 -2 -4q4 -2 5 1zM241 202q-3 5 -5 5q-1 0 2 -5t5 -5q1 0 -2 5zM154 196q0 4 -6 -5q-4 -5 1 -1q5 5 5 6zM249 187q1 2 -3 2q-6 0 -2 -3q4 -2 5 1zM146 180q2 3 -3 3q-6 0 -1 -4q3 -1 4 1zM139 175q-3 5 -5 5q-1 0 2 -5t5 -5 q1 0 -2 5zM142 162q0 6 -7 -5q-6 -7 2 -1q5 5 5 6zM74 154q2 2 -4 4q-3 1 -3 0.5t2 -2.5q3 -4 5 -2zM66 151q-3 5 -5 5q-1 0 2 -5t6 -5zM255 152q1 3 -3 3q-7 0 -2 -4q4 -2 5 1zM132 124q0 9 -4 2q-2 -4 1 -5q1 -1 2 1zM258 119q-2 3 -3 3t-3 -3q-1 -2 3 -2t3 2zM78 97 q-3 5 -5 5q-1 0 2 -5t6 -5zM253 96q0 5 -5 5q-3 0 0 -5l4 -4q1 2 1 4zM251 87q-1 -1 -6 2l-1 -1q7 -7 9 -1q0 2 -2 0zM127 87q0 5 -7 -5q-4 -5 1 -1zM121 70l2 5q-2 0 -5 -5q-4 -5 0 -7h2q-1 1 -0.5 3.5t1.5 3.5zM247 66q0 5 -6 -4q-6 -8 1 -2q5 5 5 6zM112 49q0 7 -7 -4 q-6 -8 1 -2zM95 33q1 3 -3 3q-6 0 -1 -4q3 -1 4 1z" />
<glyph unicode="o" horiz-adv-x="313" d="M194 219q1 1 9 1q17 0 25 -4q11 -6 12 -5q2 2 7 -3q7 -4 7 -19q0 -9 -3 -16q-1 -2 -1.5 -4t-0.5 -3v-1q0 -15 -14 -43q-5 -12 -7.5 -19.5t-1.5 -7.5q2 0 -3 -3q-4 -3 -4 -6q0 -5 -5 -13q-4 -7 -7 -18q-4 -16 -20 -34q-5 -5 -5 -7l-11 -6q-8 -4 -20 -4q-30 0 -57 28 q-24 24 -24 39v2v2q-4 0 -8.5 10.5t-4.5 18.5q0 11 -2 11q-3 0 -1 2t2 17q0 27 15 37q10 6 19 6q16 0 16 -15q0 -3 -1 -4q-1 -8 -4 -9.5t-6 4.5q-2 5 -4 5t-5.5 -6.5t-3.5 -10.5q0 -5 -4 -11t-3 -7q2 -2 2 -14q0 -10 8 -26q8 -14 8 -16t7 -11q11 -13 6 -19l-1 -2q2 2 6 -2 q2 -1 3 -2l-3 3q-3 5 0 5q4 0 8.5 -3t3.5 -5q-1 -1 -0.5 -2.5t1.5 -2.5q2 -1 2.5 -0.5t-0.5 2.5t2 2q0 -1 2 -1q18 -5 26 -5q3 0 7 2q6 4 4 6q-1 1 0 1.5t2 -0.5q2 -1 3 -0.5t0 2.5q-2 4 2 4q2 0 2 2t9 20q2 4 4.5 8.5t4.5 6.5l1 3l6 12q5 9 9 6q2 -2 3 -1.5t-1 2.5 q-5 8 1 21l3 8q3 9 8 20q9 22 9 32l1 13l-33 -2q-35 -2 -42 -6q-9 -4 -10 -3v-1q2 -4 0 -4t-6.5 -9t-4.5 -15t3 -6t5 -7q2 -9 -2 -12q-5 -4 -12.5 2t-6.5 13q2 6 -1 6q-5 -1 -6.5 1t-0.5 10q4 29 11 29q4 0 7 4l2 4l-4 -3q-5 -4 -1 1q6 8 32 17q8 3 21 6zM197 209q0 7 -3 1 q-1 -2 1 -4q1 1 2 3zM171 203q0 7 -3 1q-1 -3 0 -4t2 0.5t1 2.5zM180 204q2 2 -2 2q-7 0 -1 -3q1 -1 3 1zM240 201q-10 3 -14 -2l1 -1q6 5 12 0q3 -3 5 1q1 2 -1 2h-3zM147 193q1 2 0.5 2t-4.5 -2q-3 -3 -1 -3q4 0 5 3zM156 195q0 2 -7 -6l-5 -6l6 6zM250 195q0 4 -5 -4 q-3 -4 1 -1t4 5zM140 186l-1 1v0l-4 -1q2 -2 5 0zM141 178q-2 -2 -6 2q-4 3 -1 -1q5 -4 9 -1q0 2 -2 0zM135 167l1 4q-2 0 -3 -3q-2 -4 -5 -2h-4q1 -1 6 -4l4 -1q-2 3 1 6zM130 155q-7 9 -8 7q0 -1 2 -4q3 -3 1 -5h1q2 2 6 -2h1q0 1 -3 4zM75 137q2 2 -2 2q-8 0 -2 -3 q1 -2 4 1zM70 132l-2 2q-1 0 -3 -2q1 -1 3 -2q4 0 2 2zM230 125q1 1 0 2t-2 1q-7 0 -1 -3q1 -1 3 0zM71 105l-4 4q-2 0 2 -4l4 -4q2 0 -2 4zM75 89q3 3 1 3t-3 -3q-2 -3 -4 -1t-4 -1q-1 -2 2 -2zM210 83q0 7 -3 1q-1 -2 1 -4q1 1 2 3zM83 69q1 1 0 2t-3 1q-7 0 -1 -3 q2 -2 4 0zM201 61q2 2 -1 5q-2 1 -2 0.5t1 -2.5l-1 -2q-1 1 -2 1q-3 1 -3.5 0.5t1.5 -2.5q3 -4 7 0zM198 52q4 4 2 4q-1 0 -5 -4q-2 -4 1 -6h1q-1 1 -0.5 3t1.5 3zM102 46q0 3 -4 3t-5 -3l1 -1q2 3 5 0t3 1zM194 42l-3 3q-1 0 -1 -1l-1 -2q-2 -2 2 -2q2 1 3 2zM188 34l-2 2 l-2 -2q-2 -2 2 -2t2 2zM120 25l-1 2q0 1 -1 1l-3 -3q1 -1 3 -2q4 0 2 2zM175 22q2 2 -2 2q-8 0 -2 -3q1 -1 4 1zM130 20l-2 2l-2 -2q-2 -2 2 -2t2 2zM144 15q0 7 -7 2l-3 -3q-3 -4 1 -1q5 3 7 1t2 1z" />
<glyph unicode="p" horiz-adv-x="351" d="M165 185q9 3 16 3q9 0 46 -12q13 -5 16 -5h1q5 0 18 -7.5t15 -11.5q2 -6 7 -6q6 0 6 -26t-6 -42q-3 -10 -7 -22q-3 -8 -11 -15q-11 -9 -11 -11q0 -3 -19 -10t-30 -8t-38 -8q-6 -1 -8.5 -2t-6 -1.5t-4 -0.5h-1.5t-4 -2q-4 -6 2 -14q2 -4 3.5 -6.5t0.5 -2.5v-1q0 -5 13 -33 t21 -40q26 -37 26 -43q0 -3 -2 -5q-5 -7 -5 -13t-6 -5q-8 2 -10 2q-4 0 -9 9q-6 9 -1 13q5 5 0 3h-2q-5 0 -14 10t-9 17v1l1 2q1 2 -1 1q-4 -1 -5.5 1.5t-3.5 11.5q-2 7 -5 9q-5 3 -5 5q0 4 -5 12q-3 5 -7 13q-1 2 -9 16q-2 3 -7 11.5t-7 11.5q-6 11 -9 11t-15 20.5 t-12 26.5v1q2 4 6 2t6 1l-5 2h-2q-8 0 -11 10q-4 19 10 22q11 2 14.5 -1t2.5 -15q-2 -14 2 -16q3 -2 1 -6t4 -4q12 2 12 11q0 4 4 20q7 30 8 39q2 10 7 19q2 3 5 10t4 9q3 6 8 5q4 0 4 1v2q0 6 8.5 17.5t14.5 13.5zM181 176q-1 2 -4 2q-5 0 -8 -3q-1 -1 1 -2zM199 174 q0 4 -8 -4q-4 -4 -3.5 -4.5t4.5 2.5q7 4 7 6zM217 171q-6 3 -8 3l-4 -1q6 -3 9 -3zM170 164q0 4 -5 4t-1 -4l5 -5q1 0 1 5zM233 165q-1 2 -4 3q-10 0 -2 -4q4 -2 6 1zM161 160q-1 2 -4 2q-4 0 0 -2q2 -2 -3 -7q-3 -3 -2.5 -3.5t4.5 2.5q7 4 5 8zM213 155q-13 4 -25 4t-18 -7 q-16 -18 -21 -40q-11 -54 -11 -56q-2 -12 -3 -12q-1 -1 -4 1l-3 1l3 -3q5 -5 3 -12v-3q0 -2 2 -2q4 0 47 9q36 7 42 11q4 3 8 1q2 -1 1 1q-2 5 7 11q7 5 14.5 21.5t7.5 26.5q0 13 -8 26q-3 6 0 9q2 2 -2 2l-7 1q-12 0 -14 3t-19 7zM263 154q-5 5 -7 5t3 -5q4 -4 7 -4 q1 0 -3 4zM279 141q-5 5 -7 5t3 -5q4 -4 6 -4t-2 4zM145 133q1 1 -1 2t-4 1q-7 0 -7 -1l5 -3q4 -2 7 1zM283 132q0 5 -9 -4q-4 -4 -3 -4.5t5 2.5q7 4 7 6zM141 123q-1 2 -4 3q-9 0 -1 -4q4 -2 5 1zM132 119q-5 5 -7 5t3 -5t6 -5q0 2 -2 5zM140 110l3 4q-3 -1 -9 -6 q-6 -6 0 -6q3 1 4 2q-2 2 2 6zM134 91q-4 6 -11 -2q-4 -4 -3.5 -4.5t4.5 2.5q7 3 10 2q2 -1 2 0t-2 2zM272 78q-1 2 -4 3q-9 0 -1 -4q4 -2 5 1zM129 75q-1 2 -4 3q-9 0 -1 -4q4 -2 5 1zM129 65q-1 2 -4 3q-9 0 -1 -4q4 -2 5 1zM272 66q-2 3 -3 3q-3 0 -4 -3q-1 -1 0.5 -2 t3.5 -1q5 0 3 3zM122 55q0 8 -4 1q-1 -3 1 -4q3 -2 3 3zM256 52q-1 2 -4 3q-9 0 -1 -4q4 -2 5 1zM252 43q1 1 -0.5 1.5t-3.5 0.5q-7 0 -1 -3q4 -2 5 1zM105 34q-1 3 -3 3t-4 -3q-1 -1 0.5 -2t3.5 -1q4 0 3 3zM239 32q-5 5 -7 5t3 -5t7 -5t-3 5zM92 32q0 4 -8 -4q-5 -5 1 -1 q7 3 7 5zM221 27q1 1 -0.5 1.5t-3.5 0.5l-6 -1q1 0 4 -2q4 -2 6 1zM115 23q0 4 -1 4q-2 0 -6 -4q-5 -5 1 -5t6 5zM183 22q0 4 -8 -4q-5 -5 1 -1q7 3 7 5zM141 17q-1 2 -4 3q-9 0 -1 -4q4 -2 5 1zM103 9q0 4 -6 4q-5 0 -1 -4q5 -5 6 -5t1 5zM129 10q3 4 -2 4q-8 -1 -16 -9 l-9 -9l10 8q10 7 12 5q1 -1 2.5 -0.5t2.5 1.5zM128 3q0 5 -9 -4q-4 -4 -3.5 -4.5t5.5 2.5q7 3 7 6zM100 -4q-5 5 -7 5t3 -5q4 -4 7 -4q1 0 -3 4zM133 -5q-1 3 -3 3t-4 -3q-1 -1 0.5 -2t3.5 -1q4 0 3 3zM116 -10q-5 5 -7 5t3 -5t6 -5q0 2 -2 5zM140 -29h-8q-6 -1 -6 -3 q2 -2 8 -0.5t6 3.5zM148 -48q4 4 2 4t-4 -3t-8 -1q-3 1 -1 -1l2 -2q6 -6 8 -6l-1 2q-2 3 2 7zM152 -67q6 4 2 4q-3 0 -5 -4q-1 -3 -5 -1t-6 -1t2 -2q7 0 12 4zM169 -93q-2 -2 -9 1q-6 4 -1 -1q4 -4 8 -4t4 4q0 1 -2 0zM169 -109q-1 2 -4 3q-10 0 -2 -4q4 -2 6 1zM185 -129 q-2 -2 -9 2q-6 4 -1 -1q2 -2 5 -3.5t5 -0.5t2 3q0 1 -2 0zM201 -137q-5 8 -5 -2q0 -5 4 -3q3 1 1 5zM197 -150q-1 3 -4 3q-1 0 -3 -3t3 -3q4 1 4 3z" />
<glyph unicode="q" horiz-adv-x="348" d="M229 224q9 7 18 6q9 -2 25 -10.5t17 -13.5q1 -3 1 -16q0 -14 -1 -19q-4 -17 -39 -68q-22 -30 -22 -65q0 -16 3 -38q7 -56 7 -107q0 -20 -2 -28q-3 -10 -6.5 -12t-10.5 3q-6 4 -7.5 11t2.5 9q2 2 2 15q0 3 -0.5 12t-0.5 15q-2 48 -6 73q0 4 -1 9t-1.5 9t-0.5 5q0 4 -2 8 q-1 2 -1 7q0 1 0.5 3.5t0.5 4.5q0 3 3 2t3 1q-2 9 6 3q3 -2 1 1q-5 5 -6 4t-6 2q-3 1 -4 0q0 -3 -15.5 -16t-23.5 -17t-9 -5q-8 -10 -36 -10q-11 0 -17 3t-8 3q-11 1 -23 23q-13 24 -13 48q0 18 7 31q7 11 5 13q-1 1 2.5 5t8.5 7.5t7 2.5l2 1q-2 3 3 3t5 3t9 7q8 4 16 -1 q7 -5 13 -5q8 -1 20 -7.5t12 -10.5q0 -6 -4 -7t-9 4q-6 6 -8 4t-9 3q-7 4 -16 4t-16 -4l-4 -2t-3 -1t-1 1t-5 -2t-1 -7q3 -4 -1 -4h-5q-3 0 -1 -2t-2 -11q-4 -10 -4 -22q0 -20 7 -34q6 -12 6 -14q0 -1 2 -1t12 -5q8 -4 17 -4q16 0 51 28q17 14 20 14q11 0 11 39v7q0 27 1 27 q2 0 2 14q1 26 5 31q1 3 0.5 3t3.5 9q5 10 5 16q0 3 9 12zM254 219q0 4 -4 4q-5 0 -1 -4l4 -3q1 1 1 3zM245 217q0 3 -8 -5l-6 -6l7 5zM266 215q3 3 -3 3q-10 0 -2 -4q3 -1 5 1zM267 205q5 5 3 5q-1 0 -5 -4q-7 -9 -23 0q-3 2 -3 1.5t2 -3.5q4 -5 -2 -16q-5 -10 -7 -18 l-3 -9q-2 -4 -2 -20q0 -17 -2 -23q-1 -6 2 -5q5 2 14 14q8 12 12 10q3 -1 1 2q-3 5 4 20q7 14 7 23q0 2 -2 12q-2 5 4 11zM283 189q0 6 -4 1q-1 -3 1 -4q1 -1 2 0.5t1 2.5zM233 189q0 1 -1.5 1t-3.5 -1t-3 -2q-1 -2 1 -2l2 1q5 2 5 3zM281 176q2 2 -7 7l-8 5l7 -6q7 -7 8 -6 zM226 177q0 2 -4 5t-7 -1v-1q1 1 3.5 0.5t3.5 -1.5q4 -4 4 -2zM222 169q0 6 -4 1q-1 -3 1 -4q1 -1 2 0.5t1 2.5zM277 166q4 4 3 4q-3 0 -10 -7q-3 -4 -2 -4q5 4 7 2h1q-2 2 1 5zM218 162l-1 1q-1 2 -2 2l-3 -3q1 -1 3 -2q3 1 3 2zM218 148l-1 1q-1 2 -2 2l-3 -3q1 -1 3 -2 q3 1 3 2zM271 150q0 3 -9 -6l-6 -6l8 5zM264 129q0 7 -8 1q-2 -1 -3 -3l1 -1q6 5 8 3t2 0zM79 116q0 6 -4 1q-1 -3 1 -4q1 -1 2 0t1 3zM218 117l-1 1q-1 2 -2 2l-3 -3q1 -1 3 -2q3 1 3 2zM252 119q0 5 -7 -4q-2 -3 1 -1q6 4 6 5zM226 108h-2q-5 0 -8 -5q-1 -1 -2 -3q2 2 4 3 t3.5 2t2.5 2zM236 98l2 5q-2 0 -4 -3q-1 -3 -5 -1q-3 1 -3 0q0 -3 4 -3.5t6 2.5zM69 87q0 7 -4 2q-1 -3 1 -4q1 -1 2 0t1 2zM73 79q0 3 -6 -4q-2 -3 1 -1q5 3 5 5zM222 73q0 3 -4 3t-1 -3l4 -4q1 2 1 4zM210 64q-5 -4 -8 -1q-4 3 -6 0v-2q2 2 9 -3l4 -2q-2 2 2 7q3 4 -1 1z M75 52l-3 3l-3 -3q1 -1 3 -2q3 1 3 2zM180 45q-2 -2 -8 2v-1q6 -5 10 -1q0 2 -2 0zM84 35l-3 3l-3 -3q1 -1 3 -2q3 1 3 2zM174 36l-4 1q-5 0 -8 -5q-1 -2 -3 -3q1 1 3 2q4 3 8 3q2 0 4 2zM147 25q0 4 -9 -5l-6 -6l7 5zM97 18q-6 6 -7 6q-2 0 4 -6t7 -6q2 0 -4 6zM114 13 q0 4 -5 4q-4 0 0 -4l4 -3q1 1 1 3zM223 -9q-4 4 -5 4q-2 0 2 -4t5 -4q2 0 -2 4zM229 -40q0 5 -6 -3q-2 -3 1 -1q5 3 5 4zM228 -65q0 5 -3 1q-1 -3 1 -4q1 1 2 3zM228 -77q0 4 -4 4q-5 0 -1 -4l5 -4v4zM232 -99q0 3 -5 3q-3 0 0 -3l4 -4q1 2 1 4z" />
<glyph unicode="r" horiz-adv-x="354" d="M294 223q2 3 8 -3q5 -5 5 -12t-5 -7q-4 0 -5 -3q-1 -2 -9 1q-8 4 -11 -1q-4 -6 -9 -8q-7 -2 -18 -9q-15 -10 -20 -12q-7 -3 -16 -14q-7 -9 -10 -8q-2 1 -1 -1q2 -4 -5 -11t-7 -10q0 -1 -3 -4q-8 -3 -27 -43q-13 -32 -15 -39q-2 -8 -8 -20t-9 -13h-2q-6 0 -16.5 6 t-12.5 11q-4 8 -6 8q-3 0 -1 2q1 1 -2 6t-7 20q-3 13 -6 16q-2 2 -2 6t-4 14q-4 9 -2 9t-1 6q-3 4 -7 29q-2 15 -6 29q-1 4 -0.5 5.5t2.5 0.5t3 0t0 5q-1 5 0 6t5 0q5 -1 10 -6q2 -3 6 -18.5t4 -21.5v-1q0 -4 3 -13q4 -12 4 -17q0 -3 3 -9q2 -3 0 -7q-1 -2 3 -9q4 -5 4 -15 q0 -8 5 -13q4 -4 6 -8q9 -15 11 4q3 29 14 36q3 2 6 -1q4 -4 6 1q1 2 -1 1q-3 -1 -7 3q-5 6 4 5q2 0 1 2q-2 3 3.5 11.5t8.5 7.5q3 -2 5.5 1.5t2.5 10.5q0 6 8.5 17.5t12.5 11.5h1q3 -2 2 1q-2 3 3.5 9t8.5 5q1 -1 1.5 0t-0.5 2q0 4 12 14t15 10h1q2 0 10 5q5 3 22 8 q12 3 17 6q4 2 8 2q3 0 6 3zM297 214q0 2 -5 -1q-1 -1 -3.5 -1.5t-3.5 0.5t-1.5 0t0.5 -2q2 -3 8 0q5 3 5 4zM266 203l1 4q-1 0 -3 -3q-2 -4 -4 -2t-6 -2q-3 -4 0 -6t3 0q-1 5 0 6t5 -2l3 -2q-1 1 -0.5 3.5t1.5 3.5zM247 195q-1 1 -3 2q-6 0 -2 -3q3 -1 5 1zM240 191 q-4 4 -5 4q-2 0 2 -4l5 -5zM229 186q-1 1 -3 2q-5 0 -1 -3q2 -1 4 1zM242 178q0 1 -4 5t-6 0v-2q1 1 3.5 0.5t3.5 -1.5q3 -3 3 -2zM221 180q-1 1 -3 2q-5 0 -1 -3q2 -1 4 1zM211 171q3 3 2 3t-5 -4t0 -6h2q-1 1 -0.5 3.5t1.5 3.5zM72 167q0 10 -4 2q-1 -3 1 -5q1 -1 2 0.5 t1 2.5zM205 155q4 4 0 6q-3 2 -2 -1t-3.5 -6t-1.5 -3t7 4zM76 150q-1 -1 -6 2q-6 4 -1 -2q7 -7 9 0q0 2 -2 0zM199 147q0 2 -7 -6l-6 -6l7 5zM183 140l-2 2q-1 0 -3 -2q-1 -1 0.5 -2t2.5 -1t2 1t0 2zM75 129q-7 7 -8 7q-2 0 5 -7t9 -7q1 0 -6 7zM184 128q5 5 0 5q-4 0 -3 -3 q1 -1 -0.5 -1.5t-3.5 0.5q-3 1 -3.5 0.5t1.5 -2.5q4 -4 9 1zM171 109q4 4 2 4q-3 0 -4 -3q-2 -3 -4 -2q-4 2 -5 -1q-1 -2 1 -2zM82 104q-1 1 -3 2q-5 0 -1 -3q2 -1 4 1zM160 95q4 5 0 5h-3t0 -1t0.5 -3t-1.5 -3l-1 -4q2 0 -2 -4q-3 -3 1 -6h1q-1 1 -0.5 3t1.5 3l1 4 q-3 0 3 6zM85 95q-1 1 -3 2q-7 0 -1 -3q2 -1 4 1zM93 76l-5 5q-2 -2 -4 -5q-3 -3 -3 -4l3 2q4 4 9 0q2 -2 2 -1.5t-2 3.5zM148 76q-2 -2 -5 2q-4 4 -6 -1v-1q1 1 8 -3q4 -4 4 0v3t-1 0zM142 67l-6 3q-2 2 -2.5 1.5t1.5 -2.5q5 -5 8 -5q3 1 3 2q-1 1 -4 1zM94 64q2 2 -3 3 l-4 1l2 -2q3 -4 5 -2zM136 56q4 4 2 4q-1 0 -5 -4q-3 -3 1 -6h1q-1 1 -0.5 3t1.5 3zM104 50q0 4 -6 -4l1 -1q5 3 5 5zM110 44q0 4 -6 -4l1 -1q5 3 5 5zM117 37l-3 3l-1 -1l-1 -2q-2 -2 2 -2q2 1 3 2zM136 35q4 4 -2 4q-4 0 -2 -2q1 -1 -4 -7q-6 -8 0 -3q5 3 6 2v1q-2 2 2 5z M122 30q3 3 2 4q-2 0 -7 -6q-5 -5 0 -5h3t0 1q-2 2 2 6z" />
<glyph unicode="s" horiz-adv-x="289" d="M71 17q-3 1 -5 2l-6 -1q1 -2 5.5 -2.5t5.5 1.5zM125 19l2 5q-3 0 -4 -3q-2 -4 -5 -2q-2 1 -2 0q0 -3 3.5 -3t5.5 3zM166 26q-2 -2 -9 3t-1 -1q5 -6 6.5 -6.5t3.5 3.5v1zM176 32l2 4q-2 0 -3 -3q-2 -3 -6 -1q-2 1 -1 -0.5t2 -2.5q3 -5 5 -5t0 2q-1 1 -0.5 3t1.5 3zM213 54 q0 5 -7 -4q-6 -8 1 -2q6 4 6 6zM205 58q1 1 0 2t-3 1q-7 0 -2 -4q4 -2 5 1zM228 66q0 6 -8 -5l-6 -7l7 6q7 5 7 6zM225 92q0 4 -7 -5q-4 -5 1 -1q6 4 6 6zM205 103q-1 1 -3 1q-4 0 -6 -2q-1 -1 1 -2q4 -1 8 3zM183 111q1 1 0 2t-3 1q-6 0 -1 -4q3 -1 4 1zM146 135q0 3 -6 -4 q-4 -5 1 -1q5 3 5 5zM122 151q0 5 -7 -4q-4 -5 1 -1q6 4 6 5zM106 154l2 5q-2 0 -3 -3q-2 -4 -5 -2t-3 0q0 -3 3.5 -3t5.5 3zM100 167q-3 4 -5 4q-1 0 2 -4q3 -5 6 -5zM77 202q1 1 0 2t-3 1q-6 0 -1 -4q3 -1 4 1zM80 217l1 4q-2 0 -5 -4q-4 -4 1 -7h1q-2 2 2 7zM88 233 q0 3 -6 -4q-6 -8 1 -2q5 3 5 6zM111 258q-2 -2 -7 2q-6 5 -1 -2q6 -7 9 -2q1 1 1 2q0 2 -2 0zM126 263q-1 1 -3 1q-4 0 -6 -2q-1 -1 1 -2q4 -1 8 3zM104 267q12 6 23 6q8 0 9 -4q2 -4 4 -2t8 -7q3 -5 11 -13q4 -4 6 -10q1 -1 2 -5t1 -5q3 -8 1 -14l-2 -8l-9 7q-8 7 -7 14 l-1 7q-2 -1 -7 4q-5 8 -15 8q-8 0 -18 -5q-16 -8 -16 -11q0 -6 -4 -13q-3 -6 -3 -12q0 -14 16 -30q13 -13 11 -16h1q3 3 19 -7l15 -10q3 0 28 -13t35 -20q10 -6 8 -10v-1q2 2 11 -4q10 -5 7 -13q0 -2 -1 -7.5t-2 -7.5q0 -6 -7 -13q-6 -5 -6 -8q0 -2 -18 -14t-21 -12l-10 -5 q-8 -4 -33 -4q-29 -1 -61 -6q-11 -2 -13 2q-2 3 -8 3t-6 7q0 10 4 12.5t16 0.5q5 -1 14 -1q10 0 28 3q55 10 62 19q1 1 11 7q8 5 19 14l10 9l-16 10q-18 10 -20 10q-4 0 -4 5l-1 4q-1 -1 -10 2q-9 4 -10 3t-22 10q-5 3 -14.5 9t-12.5 7q-10 6 -22.5 19.5t-12.5 18.5v1 q0 3 -1 4q-2 -2 -6 3q-1 2 -2 5.5t-1 7.5t0.5 7.5t2 5.5t2.5 2q4 0 2 6q0 1 -0.5 3t-0.5 3q0 23 37 42z" />
<glyph unicode="t" horiz-adv-x="395" d="M117 307q6 2 9 2q12 0 17 -61q3 -34 5 -41q2 -5 -2 -5q-1 0 -0.5 -2t2.5 -8q5 -10 5 -25q0 -13 2 -13t0 -4q-3 -4 3 0q4 4 50 6q65 2 80 7q22 4 35 4h7q6 0 10 -7q5 -7 -4 -10q-8 -3 -27 -5q-18 -2 -24 -5t-40 -5t-36 -3t-25 -3l-22 -1v-14q0 -10 3 -25q7 -30 12 -50 q4 -14 1 -17q-4 -2 -6 -8q-3 -6 -12 -4q-15 3 -15 7q0 1 1 2q1 2 -1 1q-4 -2 -6 3q-1 4 -6 4q-2 0 -4 10q-1 8 0.5 9t9.5 0q12 -1 15 3q4 5 2 5q-1 0 -3 -1q-4 -1 -5.5 1t0.5 5q1 1 -2 6q-7 9 -7 44q0 20 4 20t6 2l-4 2h-2q-6 0 -6 -2v-1q0 -1 -7 -3t-18 -3.5t-21 -1.5h-6 q-41 1 -41 16q0 10 5 12t24 2q24 0 24 -5t4 -5t2 4q-1 2 0.5 3.5t5.5 1.5q4 1 11.5 1.5t11.5 0.5q2 0 2 1.5t-2 3.5q-3 3 -5 23q-2 23 -3 25q-1 5 -2.5 13t-3.5 15t-2 9q-1 3 -3 34q-2 29 4 30zM126 272q3 3 -3 3q-8 0 -1 -4q3 -1 4 1zM147 166q0 8 -4 1q-2 -4 1 -5q2 1 3 4 zM299 159q0 7 -7 -4q-3 -4 -2.5 -4.5t4.5 2.5q5 5 5 6zM151 148q0 3 -5 6q-4 3 -7 -1v-2q1 1 3.5 0.5t3.5 -1.5zM225 149q0 7 -7 -4q-6 -8 1 -2l3 3q3 2 3 3zM156 126q0 6 -3 1q-1 -3 1 -4q1 1 2 3zM156 90q0 6 -3 1q-2 -4 1 -5q1 -1 1.5 0.5t0.5 3.5zM168 41l-4 2h-2l-6 -1 q1 -2 6 -2.5t6 1.5zM160 30q0 5 -6 -4q-6 -8 1 -2q5 5 5 6z" />
<glyph unicode="u" horiz-adv-x="328" d="M249 223q11 4 14.5 1t3.5 -15q0 -27 -5 -34q-2 -2 -2 -14q0 -15 -3 -24q-2 -6 -5 -18q-7 -32 -12 -32l-1 -4v-2v-1q0 -10 -17.5 -37.5t-24.5 -27.5q-3 0 -5 -3t-14 -5h-5q-15 0 -36 8t-21 14v1q1 3 -2 1h-1q-4 0 -15.5 10.5t-16.5 19.5q-3 5 -4 7.5t0 2.5q2 0 -4 10 q-20 32 -20 68q0 13 4 17q4 5 10 5q8 0 14 -8t6 -20v-2v-5v-4q2 2 8 -6q3 -3 4 -5.5t1 -5t-1.5 -3.5t-4.5 -1t-5 -4q-1 -2 1 -1q3 2 4 -3q1 -3 0 -7q0 -2 4 -10q7 -14 10 -21q5 -11 12 -16q5 -3 4 -6q-2 -3 1 -2t17 -4q18 -8 37 -8h3v1q-1 1 0.5 1.5l4.5 1.5q5 2 7 8 q2 5 5 5t3 4q0 3 5 10q9 12 13 26q7 24 7 25q3 6 6 26q2 16 3 18q0 1 0.5 4.5t1 10t0.5 11.5q1 38 11 42zM82 145l-5 5q-3 3 -6 -1v-1q1 1 3.5 0.5t3.5 -1.5q4 -4 4 -2zM76 140q0 2 -4.5 2.5t-5.5 -0.5q1 -2 4 -3zM89 122l-1 1q-1 2 -2 2l-3 -3q1 -1 3 -2q2 1 3 2zM71 117 q-2 2 -3 2l-2 -2q-1 -1 0 -2t2 -1q2 0 3 1t0 2zM85 110q3 3 2 3t-5 -4t0 -6q1 1 2 1q-2 2 1 6zM85 84q-1 -1 -6 2q-4 3 -1 -1q7 -6 9 -1q0 2 -2 0zM234 87q0 5 -8 -5l-5 -6l6 5zM90 67q-4 4 -5 4q-2 0 2 -4t5 -4q2 0 -2 4zM224 65q0 7 -3 1q-1 -2 1 -4q1 1 2 3zM102 65 q0 3 -6 -4q-4 -4 1 -1t5 5zM216 53q-4 4 -5 4q-2 0 2 -4t5 -4q2 0 -2 4zM118 43q-1 1 -3 2q-7 0 -1 -3q2 -1 4 1zM207 39q0 4 -6 -3q-3 -3 -3 -3.5t4 1.5q5 3 5 5zM197 26q2 3 -1 3q-7 -1 -13 -8l-6 -7l7 6q8 6 9 5q2 -2 4 1zM164 17q-4 4 -5 4q-2 0 2 -4l5 -5z" />
<glyph unicode="v" horiz-adv-x="342" d="M265 225q2 2 7 0l12 -4q8 -2 10.5 -7t-1.5 -11t-11 -4q-6 2 -23 -16q-28 -30 -28 -41v-2q2 -4 -3 -11t-3 -9t-2 -7q-6 -9 -7 -15q-4 -17 -8 -26l-5 -15l-2 -6v-5q1 -4 -3 -15t-7 -12q-3 -2 -1 2q3 5 -1 2q-4 -2 -4 -10t-3 -8q-10 0 -24 10q-2 1 -1 2t-6 9q-8 8 -6 12 q2 3 -1 2q-3 -2 -7 2.5t-2 7.5q2 4 -2 6q-3 2 -1 -2l2 -4l-11 15q-9 13 -9 15q0 3 -2 4t-11.5 18.5t-9.5 19.5q3 0 -5 8q-8 9 -7 16q0 2 -3 1q-1 -1 -5 4.5t-9 14.5q-12 21 -12 36q0 12 7 13q2 1 4 1q8 0 18 -26q7 -18 14 -27q6 -8 4 -8t5 -10q22 -29 22 -42v-1q0 -4 6 -5 q8 -2 6 -6t1 -6q3 -1 1 -5q-2 -3 2 -3q3 0 1 -4q-1 -1 0 -2t2 0q3 2 10 -8q5 -9 3 -8l-3 1q2 -2 5 -2q2 0 10 -4q6 -2 6 1q-2 3 2 3q6 0 0 3q-5 2 5 22q9 18 11 20q3 3 3 12q0 11 5 13t3 5v2q0 9 12.5 33.5t17.5 24.5q2 -1 2.5 0t-0.5 3q-2 5 11 16q14 12 19 8t1 1 q-1 2 -1.5 4.5t0.5 3.5zM265 205q0 4 -5 4t-1 -4l5 -4q1 2 1 4zM66 203q0 5 -7 -5q-4 -5 1 -1l3 3q3 2 3 3zM250 193q0 7 -7 -4q-6 -8 1 -2l3 3q3 2 3 3zM237 173l2 5q-2 0 -5 -5q-4 -5 0 -7h2q-1 1 -0.5 3.5t1.5 3.5zM87 159q-1 1 -3 2q-4 0 -7 -3q-1 -2 2 -2q5 0 8 3z M224 150q3 5 2 5q-2 0 -4 -3q-2 -4 -5 -2t-3 0q0 -3 4 -3t6 3zM221 134q0 6 -7 -4q-6 -8 1 -2l3 3q3 2 3 3zM108 117q-3 5 -6 5l3 -5q3 -4 5 -4q1 0 -2 4zM117 94q0 5 -5 5q-6 0 -1 -5l5 -4q1 2 1 4zM126 88l-1 5l-2 -3q-2 -4 1 -5q1 1 2 3zM198 88q0 6 -7 -4q-4 -5 1 -1 q1 1 4 3zM197 69l-1 4l-4 -4q-4 -4 1 -4q4 0 4 4zM139 62q0 4 -4 4q-5 0 -1 -4l4 -5q1 3 1 5zM158 33q0 6 -3 1q-1 -3 1 -4q1 1 2 3z" />
<glyph unicode="w" horiz-adv-x="440" d="M360 211q6 3 11 3q17 0 17 -18q0 -5 -1 -7q-3 -10 -12 -10t-10 -6q0 -5 -3 -5l-11 -29q-14 -47 -21 -68t-13.5 -34t-10.5 -15t-13 -2h-3q-6 0 -17.5 5.5t-11.5 8.5v1q1 3 -2 3q-4 0 -7 6q-4 8 -10 12q-3 3 -2 5q1 0 -2 3q-5 2 0 8q6 8 -1 2q-6 -4 -13 4q-6 8 -9 8 q-1 0 -8 -23q-8 -26 -9 -31q-2 -8 -14 -20q-8 -8 -11 -9t-10 3q-19 11 -19 13q0 3 -2 2q-3 0 -15.5 13t-12.5 17q0 3 -6 8q-5 4 -12 18q-4 8 -20 32q-14 21 -12 25q1 3 -2 1q-4 -3 -7 6q-1 4 0 8q2 5 -4 9q-5 6 0 11q6 7 16 5.5t10 -8.5q0 -2 8 -18t8 -18t11 -19 q11 -16 9 -19q-1 -2 2 -2t5 -6t14 -22.5t15 -16.5q4 0 2 -4q-3 -5 3 -5q5 0 13 -2q10 -2 11 -3q4 -2 8 4q4 5 -1 1q-6 -5 -6 2v12q3 69 16 71q15 2 28 -5q6 -3 11.5 -10.5t4.5 -11.5q0 -1 2 0q3 1 7.5 -3.5t4.5 -9.5t8 -11t6 -9q-1 -1 0 -2t3 0q5 2 10 -5q9 -10 0 -3 q-2 1 -4 3q1 -2 2 -3q4 -6 11 -3t9 1v1q-2 2 4 12t6 13l8 28q8 28 8 30q0 5 3 8q2 2 2 5q1 9 7.5 22.5t10.5 13.5q2 -1 1 1q-2 4 3 13q1 2 2 4.5t1 4t-1 1.5zM368 205q0 5 -7 -4q-6 -8 1 -2q6 4 6 6zM379 200q1 1 -0.5 1.5t-3.5 0.5q-4 0 -6 -2q-1 -2 2 -2zM374 188 q0 2 -5 3.5t-6 -0.5q-1 -1 2 -2q1 -1 3 -1h6zM354 175q-2 3 -3 3t-3 -3t3 -3t3 3zM69 161q1 1 0 2t-3 1q-6 0 -1 -4q3 -1 4 1zM345 149q6 6 3 6q-2 0 -5 -4q-4 -5 -6 -3q-3 2 -3 0q0 -7 8 -1zM77 144q-3 5 -5 5q-1 0 2 -5q3 -4 5 -4q1 0 -2 4zM96 97q-3 5 -5 5q-1 0 2 -5 t5 -5q1 0 -2 5zM203 97q0 7 -4 2q-2 -4 1 -5q1 -1 2 1zM236 89q-7 4 -18 3q1 -1 7 -1q5 0 10 -3q4 -3 1 1zM112 83q-5 5 -9 5l-3 -1q2 -2 4 -2q4 0 7 -3q4 -3 1 1zM207 84q-2 8 -13 -4l-7 -8l8 7q7 7 10 5q2 -2 2 0zM113 74q-1 2 -3 2t-3 -2q-1 -3 3 -3t3 3zM253 59 q-3 5 -5 5q-1 0 2 -5t6 -5zM195 56l2 5q-2 0 -5 -5q-4 -4 0 -7q1 1 2 1q-2 2 1 6zM270 42q-6 6 -7 6q-2 0 4 -6l7 -7q3 0 -4 7zM159 28q-8 0 -11 2l-3 2l3 -4q7 -9 15 -1zM174 25q1 1 -0.5 2t-2.5 1q-5 0 -1 -3q3 -2 4 0zM172 16q-2 2 -7 2l-3 -1q2 -2 7 -2z" />
<glyph unicode="x" horiz-adv-x="334" d="M244 226q11 6 19.5 1t5.5 -16q-2 -6 -17.5 -23.5t-21.5 -18.5q-4 -2 -5 -6q-3 -16 -16 -28q-6 -6 -5 -6q5 2 4.5 -0.5t-5.5 -7.5q-4 -4 -2.5 -7t13.5 -11q22 -17 24 -19q7 -7 12 -5q6 2 9 -3q2 -4 12 -6q8 -2 10 -9t-4 -15q-6 -7 -19 -3q-21 7 -13 17v1q-2 -2 -6.5 -3 t-8 -0.5t-3.5 2.5t-11 9q-10 7 -9 10q1 2 -1 2l-2 -1q-6 -2 -8 2q-1 2 -6 -1t-9.5 -9.5t-6.5 -11.5q-2 -6 -6 -4q-2 1 -2.5 0.5t0.5 -2.5q2 -4 -1 -13q-1 -2 -2 -5t-1 -5l-1 -2l-7 -7q-7 -6 -16 -24t-9 -26q0 -7 -9 -18.5t-14 -11.5h-2q-7 4 -7 14t7 25q10 24 10 25q2 4 4 3 q1 -1 1.5 0.5t-0.5 3.5q-1 3 2 9.5t7 11.5t6 3q2 -1 0 3q-2 5 4 10q5 5 5 9q0 5 7 10q6 6 12 1q3 -3 3 -2.5t-3 4.5q-7 10 -1 20q2 2 4 2q1 -1 1.5 0.5t-0.5 3.5q-2 5 4 12t11 6q4 0 14 -8l8 -7l-8 9q-12 13 -24 4q-12 -10 -28 5q-8 7 -30.5 13.5t-38.5 6.5q-21 0 -21 3 q0 1 -0.5 4.5t-0.5 5.5q0 4 -4 10q-4 5 1.5 13.5t12.5 8.5q9 0 19 -8q11 -9 18 -9h1q8 0 36.5 -13t35.5 -20l8 -8l2 8q1 3 2.5 5t3.5 1t1 1q-2 4 7 24t9 23q0 5 13.5 17.5t18.5 12.5h1q4 -2 2 1q-2 4 4 7zM249 215q4 5 2 4t-10 -7t-11 -5q-4 2 -5 -1q-1 -2 2 -2h4q10 2 13 2 q4 0 2 2t3 7zM258 211q0 8 -4 1q-1 -3 1 -4q3 -2 3 3zM256 200q0 6 -8 -4l-3 -5l4 3q7 5 7 6zM241 193q0 3 -3.5 3.5t-5.5 -1.5q-2 -4 -5 -2q-4 2 -6 -1q-1 -2 3 -3q4 0 10 2l2 1h2q3 0 3 1zM223 176q0 5 -8 -5l-3 -4l5 3q6 4 6 6zM71 165q0 3 -9 -7l-7 -7l8 6zM75 158 q0 5 -8 -5q-2 -3 1 -1q7 5 7 6zM106 155q-3 6 -10 -2q-3 -4 1 -1t8 1q3 -1 1 2zM129 147q0 6 -8 -4q-3 -5 -2.5 -5t4.5 3q6 5 6 6zM200 140q0 9 -4 2q-2 -4 1 -5t3 3zM170 124q2 3 -3 3q-9 0 -2 -4q4 -2 5 1zM192 99q3 4 1 3l-6 -3q-5 -3 -1 -3t6 3zM185 89q2 3 1 3t-8 -5 q-6 -5 -10 -3q-3 1 -1 -2t8.5 -0.5t9.5 7.5zM206 88q2 3 -3 3q-9 0 -2 -4q4 -2 5 1zM240 69q0 5 -5 5t-1 -5l5 -5q1 3 1 5zM257 68q-4 7 -4 -2q0 -4 3 -3t1 5zM271 60q1 3 -3 3q-9 0 -2 -4q4 -2 5 1zM160 49q-3 4 -7.5 3.5t-4.5 -4.5q0 -6 4 -2q5 4 7 2q1 -1 1.5 -0.5 t-0.5 1.5zM151 38q-2 3 -9 -2q-1 -2 0 -2.5t3 0.5q6 2 6 4zM147 27q3 5 2 5q-3 0 -4 -3q-2 -4 -5 -2q-4 2 -4 0q0 -4 4 -3.5t7 3.5zM136 20q0 4 -7 -4l-3 -5l4 3q6 4 6 6zM143 17q0 3 -7 -5q-2 -3 1 -1q6 5 6 6z" />
<glyph unicode="y" horiz-adv-x="307" d="M232 181q7 4 13 4q5 0 4 -10q-1 -12 -7 -27q0 -1 -2 -4l-1 -4q0 -1 -1 -2v-2v-4q-1 -3 -1 -5q-2 -15 -7 -14q-2 2 -4 -1t1 -2q3 2 5 0t-2 -4q-2 -2 -2 -5q0 -4 -16 -32t-16 -30t-6.5 -9t-8.5 -7t-6 -13q-3 -12 -7 -12t-2 -5q2 -6 -3 -9t-3 -3q1 0 0 -3.5t-4 -10.5 q-1 -2 -2 -4.5t-1.5 -4l-1 -3t-1.5 -2.5v-1q0 -1 -1 -1q-2 0 -2 -5q0 -6 -2 -14q-1 -2 -2 -8.5t-1 -8.5q-7 -47 -8 -67q0 -15 -4 -15q-2 0 -6 -4v-1q3 3 11 -3l5 -3q-2 2 1 6t-1 1q-5 -3 -6 -1q-2 2 4 4q5 2 5 5q0 1 3 7q3 5 5 0q2 -4 0 -9q-3 -9 -4 -13q-3 -13 -13 -17 t-15 6q-3 5 -3 35q0 20 2 22l2 16q1 4 2 15t1 15q3 25 19 73q10 30 -2 30q-10 0 -21 8q-11 9 -9 11q-1 1 -3 1q-3 0 -3 1q2 3 -1 3t-1 3t-1 2q-2 -1 -9 7q-11 14 -4 10l1 1q-2 2 -5 2t-6 5q-1 1 -2 4l-2 3q-6 4 -20 45q-4 14 -4.5 16t2.5 5t12 0q9 -1 12.5 -4.5t-0.5 -8.5 q-3 -3 3 -14q6 -12 6 -15q0 -2 5 -7q4 -4 2 -4q-1 0 0.5 -3.5t6 -9.5t9.5 -12q7 -7 13 -15t9 -9q4 -1 3 -4q-1 -2 -0.5 -2t2.5 2q3 4 8 -1q3 -3 8 -3.5t7 2.5t3 2l2 4v2q2 18 11 33q6 9 6 16q0 4 4 10t4 8q0 3 9 23l10 22q0 2 7 9t9 6q1 0 1 2q0 3 8 8zM243 174q0 3 -4 3 q-2 0 0 -3l3 -4q1 2 1 4zM226 162q2 2 -2 2q-8 0 -2 -3q2 -1 4 1zM240 157q2 2 -3 4q-3 1 -3.5 0.5t1.5 -2.5q3 -3 5 -2zM219 147q0 5 -1 5q-2 0 0 -4q0 -3 -5 -6l-4 -3l4 2q6 2 6 6zM233 142q0 7 -7 1l-3 -3q-5 -6 1 -1q5 5 7 3t2 0zM59 135q1 1 0 2t-2 1q-7 0 -1 -3 q2 -1 3 0zM66 129l-4 4q-2 0 2 -4l4 -4q2 0 -2 4zM211 130v3l-3 -2q-2 -2 2 -6q4 -3 6 0q2 2 -2 2q-3 0 -3 3zM233 130q0 1 -2 1t-5 -3q-2 -2 -4 -1t-1 -1q3 -3 6 0q4 4 6 4zM72 122q0 2 -6 -4q-3 -4 1 -1q5 3 5 5zM205 115q2 2 -3 4q-3 1 -3 0.5t2 -2.5q3 -3 4 -2zM217 113 q0 6 -6 2q-2 -1 -3 -3q-6 -6 -8 -3v-2q2 -4 8 2q6 5 7 4q2 -2 2 0zM74 111q4 4 2 4t-3 -3q-1 -2 -4 -1t-3 0q0 -2 3 -2t5 2zM222 103q4 4 2 4t-3 -3q-1 -2 -4 -1q-2 1 -2 0q0 -2 2.5 -2t4.5 2zM78 101q-1 1 -3 2q-7 0 -1 -3q2 -2 4 1zM199 103q0 3 -7 -5l-5 -6l6 5zM213 99 q-5 5 -6 5t0 -1l4 -4q5 -5 6 -5t0 1zM195 92l3 4q-3 0 -6 -5q-5 -5 -1 -7q1 1 2 1q-2 2 2 7zM78 91q-1 1 -3 2q-7 0 -1 -3q2 -2 4 1zM85 90q3 4 1.5 3.5t-5.5 -4.5q-5 -5 0 -5q3 0 2 1t2 5zM208 89q5 5 3 5q-1 0 -3 -3t-6 -1q-2 1 -2.5 0.5t1.5 -2.5q3 -3 7 1zM191 79 q-1 -1 -5 2q-2 1 -2 0.5t2 -2.5q7 -6 7 -2q0 1 -0.5 2t-1.5 0zM215 79q0 2 -3 3t-4 -1q-3 -3 -7 -2q-3 0 -4 -1q2 -4 12 0h4q2 0 2 1zM188 71l-4 4l1 -4q4 -4 5 -4q2 0 -2 4zM181 66q2 4 0 4q-1 0 -3 -4q-2 -3 -3 -2h-3q1 -2 4 -4q4 -2 7 1q5 6 0 3q-2 -1 -2.5 -0.5t0.5 2.5 zM103 64q-1 3 -6 -2q-1 -3 2 -1q4 2 4 3zM188 53q4 4 2 4t-3 -3t-5 -1l-1 -1l3 -3q6 -5 7 -4q6 4 0 4q-4 -1 -4.5 0t1.5 4zM114 50q3 4 2 4t-6 -4q-6 -4 -2 -4q2 0 6 4zM175 50q4 4 2 4q-3 0 -4 -2t-4 -1q-2 1 -2 0q0 -2 3 -2.5t5 1.5zM177 44q3 5 2 5l-4 -4q-3 -3 -6 -2h-1 q-1 -1 1 -3q4 -4 5 -4q2 0 0 2q-1 1 3 6zM119 43q3 3 2 3q-2 0 -3 -2t-4 -1t-3 0q0 -2 3 -2t5 2zM187 41q-2 5 -7 -2q-1 -2 -3 -3q1 1 3 2q1 1 3.5 1.5t3.5 -0.5v2zM136 30q1 1 -0.5 2t-2.5 1q-7 0 -1 -3q2 -2 4 0zM163 28q2 2 -1 4q-2 1 -4 -1t1 -4q2 -1 4 1zM157 23l-2 2 l-2 -2q-2 -2 2 -2t2 2zM173 22q2 3 -1 3q-6 0 -10 -6q-5 -6 1 -1q5 5 7 3q1 -1 3 1zM155 -9l-3 3q-2 3 -3 3q-3 0 3 -6q5 -5 6 -5q2 0 -3 5zM142 -62q-1 -1 -3.5 -0.5t-3.5 1.5q-2 1 -3 2q2 -1 3 -3q2 -3 1.5 -4.5t-4.5 -0.5q-2 1 -2 0l5 -5l2 -1q-3 3 3 8zM137 -82 q2 2 -4 4q-3 1 -3 0.5t2 -2.5q4 -4 5 -2zM132 -94l-4 4q-2 0 2 -4l4 -4q2 0 -2 4zM133 -103l-2 2l-2 -2q-2 -2 2 -2t2 2zM131 -117q-1 1 -3 2q-7 0 -1 -3q1 -2 4 1zM130 -160q0 3 -6 -3q-3 -4 1 -1q5 3 5 4zM132 -181q0 2 -5 -3q-3 -4 1 -1t4 4zM138 -183q0 2 -6 -4 q-3 -4 1 -1q5 3 5 5z" />
<glyph unicode="z" horiz-adv-x="381" d="M144 209q2 1 6 0q9 -3 30 -3q31 -1 50 -6q14 -4 15 -4q9 -2 23 -9.5t16 -11.5t2 -8q0 -17 -12 -26q-6 -5 -5 -6t-3.5 -5t-10.5 -7t-7 -2h-1v-1q0 -8 -39 -28q-13 -7 -13 -8q0 -3 -8 -6t-18 -11q-8 -7 -10 -4l-1 -1q0 -5 -3 -5q-5 0 -10 -5l-6 -6l26 -1h50q13 0 29 -0.5 t27 -0.5h11q1 0 17 2q7 1 17 1q12 0 17 -6q5 -5 1 -8t-3 -4l-9 -2q-10 0 -12 -2t-3 1q-2 4 -6 2q-9 -3 -47 -3q-16 0 -18 1q-5 3 -7 1q-1 -1 -33 -3q-26 0 -35 3q-4 0 -6 -1t-26 -5t-32 -8q-2 -1 -4.5 -2.5t-4.5 -2.5l-4 -2t-3 -1q-5 -2 -11 2q-15 10 8 21q15 8 15 9t9 6 q9 6 11 9q4 6 13 -2q9 -7 1 2l-1 1q-3 4 1 7q1 0 4 2q2 1 3 2q2 1 10 6t11 7q10 7 13 5t2 1q-1 2 6.5 8.5t10.5 5.5q3 0 1 2q-1 2 2 3.5t9 2.5q5 1 5 3q-1 2 10 10.5t14 7.5q2 0 1 1t0.5 3t3.5 3l4 2q-3 0 3 6q5 5 8 4q1 -1 2.5 -0.5t2.5 1.5q1 2 -1 1q-3 -2 -2 1q2 4 6 2 q1 1 2 1q-2 2 2 4q6 4 1.5 11.5t-12.5 7.5q-6 0 -6 3q-1 1 -12 3q-2 0 -7 1t-9 1.5t-8 1.5q-20 4 -45 4q-12 0 -36 -2t-31 -2q-9 0 -14 -5t-7 -5t-4 -10q-1 -6 -3 -10t-4.5 -4.5t-5.5 1.5q-4 4 -1 18q2 7 4 7h3q5 -2 7 1q2 2 -1 2q-4 -1 -5.5 1t-0.5 10q1 11 9 13q5 2 40 4z M94 197q-1 1 -3 2q-7 0 -1 -3q2 -2 4 1zM105 195q2 2 -3 4q-3 1 -3.5 0.5t1.5 -2.5q4 -3 5 -2zM122 199q0 2 -5 -3q-3 -4 1 -1t4 4zM183 198q-2 2 -3 2l-2 -2q-2 -2 2 -2q2 1 3 2zM196 197q-1 1 -3 2q-7 0 -1 -3q2 -2 4 1zM209 197q-1 -1 -3 -0.5t-3 1.5q-2 1 -3 2l3 -3 q4 -5 7 -2q1 1 1 2q0 2 -2 0zM87 194l-4 4q-2 0 2 -4l4 -4q2 0 -2 4zM127 194q0 7 -3 1q-2 -1 1 -4q1 1 2 3zM219 196q0 2 -5 -3q-3 -4 1 -1t4 4zM237 189l-6 2l-5 -1q2 -2 6 -2t5 1zM76 186l-1 4q-1 -2 -3 -4q-2 -3 0 -3q4 0 4 3zM274 179q-2 -3 -5 0t-5 0v-2q2 3 5 0 q4 -4 6 0q-1 1 -1 2zM279 171q3 3 1 3q-1 0 -4 -3q-3 -4 0 -6h2q-2 3 1 6zM274 162l-2 2q-1 0 -3 -2q-1 -1 0 -2t3 -1q1 0 2 1t0 2zM271 153q2 2 -2 2q-7 0 -1 -3q1 -1 3 1zM255 138q4 3 5 4l-8 -4q-6 -5 -3 -7h2q-1 1 4 7zM268 142q0 2 -7 -5l-5 -6l6 5zM268 134q0 3 -6 -3 q-3 -4 1 -1q5 3 5 4zM240 124q-3 6 -8 -1q-3 -4 1 -1q1 1 3 1.5t3 -0.5zM192 92l2 3l-5 -3q-5 -3 -3 -3q3 0 6 3zM180 86q-1 1 -3 2q-7 0 -1 -3q2 -1 4 1zM166 75q2 2 -2 2q-7 0 -1 -3q1 -1 3 1zM147 64q-4 4 -5 4q-2 0 2 -4l4 -4zM144 58q0 2 -1.5 2.5t-3.5 0t-3 -1.5 q-3 -3 -6 -2t-1 -2q3 -3 7 1q5 3 6 2q2 -2 2 0zM141 54q0 1 -5 -4l-3 -3q1 1 3 2q5 3 5 5zM120 43l1 4q-1 0 -3 -3q-1 -2 -4 -1q-2 1 -2 0q0 -2 3 -2t5 2zM135 43l-4 1q-8 0 -20 -13q-4 -4 -1 -4h3t0 1t2.5 4t8 6t6.5 3q3 0 5 2zM176 40q-4 -4 -8 0q-2 1 -3 2q2 -1 3 -3 q4 -4 7 -2q4 2 4 4t-3 -1zM320 39q-1 1 -3 2q-7 0 -1 -3q2 -2 4 1zM146 35q0 4 -4 4t-1 -4l4 -3q1 1 1 3zM256 37q-4 -3 -7 0q-2 1 -3 2q2 -1 3 -3q4 -4 7 -2q4 2 4 5q0 2 -4 -2zM274 34q-4 4 -8 4h-3t0 -1t4 -1t6 -3zM291 36q5 3 2 3q-4 0 -5 -2q-2 -4 -4 -2q-2 1 -4 -1 q-1 -2 1 -2zM164 34q-1 1 -3 2q-7 0 -1 -3q2 -1 4 1zM223 34q-1 1 -3 2q-7 0 -1 -3q1 -1 4 1zM98 33q0 2 -7 -5l-5 -6l6 5zM202 31q-2 2 -6 2q-3 0 -2 -1q2 -2 5 -2h3t0 1z" />
<glyph unicode="{" horiz-adv-x="219" d="M75 530v4l3 -3q6 -6 6 -10q0 -1 1 -4l2.5 -7.5t2.5 -8.5q5 -18 5 -53q0 -58 -8 -84q-5 -18 -5 -24l-2 -12l12 -2q15 0 30.5 -4.5t15.5 -9.5l-1 -1h3q4 3 12 -5q7 -5 5 -24q-8 -39 -13 -53q-12 -33 -12 -43q0 -11 -5 -36q0 -1 -1 -8t-1 -11q-2 -10 -5 -10q-3 2 -2 -2l2 -5 q1 -2 2 -4.5t2 -4.5t1 -3q0 -7 5 -15q6 -10 15 -10q13 0 19 -6q1 -1 0 -1q-1 1 -2 1q-5 0 -5 -1q0 -13 -12 -16q-5 0 -8 -3t-7 3q-3 4 -6 4h-5q0 3 -9 12q-8 9 -8 39q0 16 7 60q3 13 3 22l2 5q1 4 1 7q0 7 9 29q8 19 8 26q0 2 2 2.5t3 -0.5v1q-3 3 0 14v14q-4 9 -33 13 q-3 1 -6.5 1.5t-6.5 1t-4 1.5q-3 1 -3 0q2 -2 -6 -7q-7 -5 -10 -9q-7 -12 -17 -1q-8 8 -3 18q5 7 7 7t2 5q0 6 5 18t5 22q4 31 6 31t2 3l-1 7q0 6 -0.5 16.5t-0.5 19.5q0 38 -3 41q-2 2 -2 13q0 15 -1 16q-1 2 2.5 9.5t5.5 7.5q1 0 1 2.5t-1 4.5zM84 410l-4 3q0 -1 -2 -3 q0 -2 2 -2q4 0 4 2zM72 321q0 3 -4 0q-2 -1 -3 -3l-2 -4l4 2zM95 316q0 6 -3 2q-2 -2 2 -5q1 0 1 3zM72 311q-1 2 -7 -5q-1 -2 -2 -3q1 1 4 3zM115 307q0 4 -3 4q-8 0 -2 -4q2 -3 5 0zM115 85l1 2l-6 -2q-4 -3 0 -3q2 0 5 3zM132 66q0 4 -3 4q-8 0 -2 -4q3 -2 5 0z" />
<glyph unicode="|" horiz-adv-x="165" d="M61 356q5 4 8 1t3 -10q0 -3 0.5 -8t0.5 -6q0 -4 2 -16q2 -24 4 -37q1 -8 3 -16l1 -7q2 -6 2 -19q0 -11 4 -33q6 -28 6 -61v-29v-13q0 -19 3 -39q2 -11 3 -13t1 -6q0 -5 2 -7q3 -4 1 -9t-4 -5t-2 -4q0 -3 -4 -5q-10 -3 -12 11q0 1 -1 6t-2 7q-2 10 0 10t0 21q0 6 -0.5 20 t-0.5 21t0.5 21t0.5 20q0 15 -2 29q-3 13 -5 44q-3 23 -4 31q-1 4 -4 31q0 2 -0.5 4.5t-1 4.5t-0.5 3q-3 9 -5 38q-1 17 3 20zM69 323l-2 2l-2 -2q-1 -1 2 -1t2 1zM69 305l-4 4q-2 0 2 -4t5 -4t0 1zM85 200q1 1 -3 3l-1 -1q3 -3 4 -2zM89 190q0 3 -2 4q-2 2 -4 -1v-1 q1 2 4 -1q2 -2 2 -1zM88 187q-2 3 -4 3l2 -3q2 -4 3 -4t-1 4zM88 171q2 2 -2 2t0 -3zM91 146q0 1 -4 -3q-2 -3 1 -1zM87 135q0 4 -2 1q-1 -2 0 -3t1.5 0t0.5 2zM91 88q0 1 -4 -3l-1 -2q0 1 2 2zM91 76q0 1 -4 -3q-2 -3 1 -1zM93 68q0 1 -4 -3q-2 -3 1 -1zM93 59q0 4 -2 1 q-1 -2 0 -3t1.5 0t0.5 2zM92 42q1 1 -2 3q-5 1 -1 -2q2 -2 3 -1z" />
<glyph unicode="}" horiz-adv-x="252" d="M82 465q5 4 6 2q5 -5 7 -3h2q6 0 16.5 -4.5t10.5 -7.5v-1q0 -3 3 -3q5 0 12 -9t7 -31q0 -29 -2 -38t-2 -20q0 -3 -3 -6q-2 -2 -2 -5q0 -11 -2 -20q-5 -28 -5 -35q0 -10 5 -10q4 0 4 1q0 4 11 12t16 8h1q4 -4 4 2q0 3 9 6q10 3 15 -1q6 -5 0 -22q-2 -4 -5.5 -16t-5.5 -15 q-6 -9 -10 -27t-5 -19q-6 -6 -6 -12q0 -10 -4 -16q-1 -1 -1 -14q0 -1 -1 -4t-2.5 -7t-2.5 -6q-4 -12 -4 -22q0 -8 -4 -12q-4 -6 -4 -43q0 -19 2 -19h8q4 -1 4 -8q0 -21 -13 -25q-4 -1 -10.5 3t-6.5 9q0 2 -6 8q-4 2 -4 16q0 13 -2 15q-3 3 6 7q3 3 2 4q-4 0 -2 10q1 3 2 10 t2 10q9 47 15 47q3 0 0 4q-3 5 0 13t7 25q1 4 3 15.5t3 15.5l7.5 22.5t-1.5 5.5q-3 0 -10 -7.5t-7 -11.5q0 -6 -15 -3q-4 0 -12 6q-5 5 -5 13q0 2 2 22q4 61 7 68q2 3 2 13q0 5 4 23q2 9 2 23q0 13 -4 21q-4 6 0 9l3 4l-3 -2q-6 -5 -11 1q-15 11 -29 -6q-8 -9 -9 -8v-1 q7 -5 2 -5q-4 0 -4 -5q0 -3 -9 -6q-9 -2 -15 2q-12 9 0 26q1 2 2 4.5t2 4t1 2.5q0 4 11.5 10.5t16.5 6.5h1h1q-2 2 2 6zM99 451q-3 3 -9 3h-4q1 -1 4 -1q4 0 7 -3q3 -2 4 -1.5t-2 2.5zM118 447q-1 1 -2 3t-2 0l-1.5 -1.5l-1.5 -1.5l-3 -4l3 2q6 3 7 2zM75 444l-6 4l4 -4 l6 -4zM71 439q-3 3 -8 3q-3 0 -1 -2q1 -1 5 -1q4 1 4 0zM58 428q0 7 -4 1q0 -1 2 -3q2 0 2 2zM71 429q0 2 -4 2q-8 0 -2 -3q3 -2 6 1zM139 408q0 1 -1.5 1t-3.5 -1t-3 -2q-2 -2 -0.5 -2t4.5 1zM137 387q-4 6 -4 -1q0 -3 4 -3q2 2 0 4zM167 281q-2 2 -8 2q-3 0 -1 -2 q1 -1 5 -1zM126 277q1 1 0 2q-2 0 -4 1q-3 2 -4 1t2 -3q4 -4 6 -1zM159 275l-5 3q0 -1 2 -3l5 -4q0 2 -2 4zM182 275q0 3 -4 3q-6 0 0 -3q2 -2 4 0zM127 269q-1 -1 -7 2q7 -7 9 0zM152 267q0 6 -4 0q-2 -1 0 -3q4 0 4 3zM148 260h-2q-1 0 -2 -1t-3.5 -3t-3.5 -3l-6 -4l8 4z M171 242l-2 5q-2 -3 -4 -5v-3q6 0 6 3zM165 219l-6 3q0 -1 2 -3l6 -5q0 3 -2 5zM154 180q0 3 -4 3q-8 0 -2 -3q3 -3 6 0zM139 121q0 3 -4 3t-2 -3l4 -3q2 1 2 3zM131 93q0 6 -4 0q-1 -1 2 -3q2 0 2 3zM137 44q0 1 -2 1.5t-4.5 -0.5t-3.5 -2q-2 -2 -0.5 -2.5t4.5 0.5z" />
<glyph unicode="~" horiz-adv-x="267" d="M190 315q10 4 10 0q0 -2 2 -2l2 -2q2 -3 -6 -6q-7 -3 -11 -6t-3 -4q0 -2 -2 -2q-3 0 -3 -1q0 -3 -4 -4q-6 -2 -7 -4q-2 -3 -3 -3q-2 0 -2 -2q0 -1 -6 -5q-5 -4 -12 -3q-8 2 -11 5l-5 5l3 3q2 2 1.5 2.5t-3.5 -2.5l-3 -2q2 2 0 2q-3 0 -1 2h-1q-2 -1 -5.5 1t-3.5 3t-5 3 h-15l-2 -1q-2 -2 -4.5 -3t-3.5 -1q-1 1 -1.5 0.5t0.5 -1.5q1 -2 -2 -5.5t-4 -2.5q1 -1 -1 -5q-4 -9 -5 -12q-6 -17 -12 -8q-2 3 -1 12q2 8 2 9t4.5 8t5.5 7q2 0 4 5q1 4 6 4q2 0 2 2q0 3 8.5 5.5t14.5 1.5t13.5 -5.5t6.5 -6.5q0 -1 1 -1q3 0 5 -2q4 -4 7 -4l3 -3q2 -2 4 -2 q5 0 18 13q10 11 25 18zM195 310l2 3q-2 -1 -3 -2q-2 -2 -3 -2h-1q1 -2 5 1zM190 306q0 2 -1.5 2t-2.5 -1q-2 -2 -3 -1q2 -2 3 -1q2 2 3 1t1 0zM98 302l1 2l-2 -2h-2q-1 0 -2 -1q0 -1 -1 -1.5t-2 0.5v-1q2 -1 3 0l2 1q2 1 3 2zM110 302q0 2 -3 -2v-1zM181 299q0 1 -1 1 l-1 -1q2 -2 2 0zM115 298q0 1 -1 1q-5 0 -1 -2q2 -2 2 1zM90 294q0 5 -2 1q0 -2 1 -2t1 1zM125 296q0 1 -4 -3l-3 -4l4 3zM176 294q0 4 -5 -1v-1q3 3 4 2t1 0zM160 286l-1 1q-2 0 -2 -1q0 -2 2 -2q1 0 1 2zM81 285q0 3 -3 -2q-2 -1 -1 -2t2 1zM139 284q0 1 -1 1q-5 0 -1 -2 q2 -2 2 1zM75 280q0 2 -2 2q-1 0 0 -2l2 -2v2zM154 279l-3 2q0 -1 1 -2l3 -3q0 2 -1 3zM74 276q-1 1 -3 2l-1 -1q2 -2 0 -4q-2 -1 -3 0v-1q1 -2 4 1zM146 277q0 5 -2 1v-2q2 0 2 1zM150 276q0 4 -2 0q0 -2 1 -2t1 2zM69 265v2l-2 -2q-1 -2 0 -2q2 0 2 2z" />
<glyph unicode="&#xad;" d="M67 222q4 2 6 1q4 -2 6 -2t44 -3q29 -2 29 -13q0 -4 -5 -1q-6 3 -28 3q-19 0 -25 -2q-5 -1 -7 0q-2 2 -3 -2q-1 -6 -5 -4q-2 0 -2 2q-1 1 1 4v1q-4 -2 -6 0q-5 3 0 8q3 3 -1 1q-5 -2 -6.5 1t2.5 6zM94 213q0 2 -2 2q-5 0 -1 -2q1 -1 3 0zM80 211q1 1 -1 1l-1 1l-1 -1 q2 -2 3 -1z" />
<glyph unicode="&#xd3;" horiz-adv-x="403" d="M139 335q13 9 27 9q15 0 21 -11q6 -12 5 -16t0.5 -4.5t7.5 0.5q9 3 31 3q13 0 17 -2t5 -2q25 -3 38 -13q8 -6 9 -8t-3 -6q-4 -6 1 -10q8 -6 2 1q-5 5 -1 7q3 2 8 -5q5 -8 0 -12t-3 -4h2q11 1 17 -11q5 -10 5 -12l2 -6q11 -27 11 -67q0 -20 -3 -32q-6 -21 -9 -25 q-1 -2 -1.5 -4.5t0.5 -3.5v-1q0 -4 -31.5 -33t-47.5 -40q-12 -9 -31 -13q-16 -4 -40 -4q-15 0 -18 2q-3 3 -22 9q-14 5 -27.5 13t-13.5 12q0 2 -3 1h-1q-4 0 -12 10t-10 18q-5 20 -15 41q-5 12 -5 43q0 19 1 28q2 17 7.5 33.5t8.5 16.5h1q3 -1 1 2q-2 4 6 16q9 13 9 16t2 5 q6 6 15 19q17 26 37 40zM168 328l-2 3q-2 0 -3 -3t3 -3t2 3zM149 317q-1 2 -4 3q-8 0 -1 -4q4 -2 5 1zM131 313q0 7 -7 -4q-6 -8 1 -2l3 3q3 2 3 3zM162 310q2 4 0 4q-1 0 -3 -4q-1 -5 -24 -6q-1 0 -2 -1t0 -2q2 -2 -4 -4q-4 -1 -4 -5q2 -11 -5 -11q-5 0 -12 -12 q-3 -6 -6.5 -9.5t-4.5 -2.5t-1 -1q1 -1 1 -2q2 -5 -2 -10q-5 -7 -6 -15q-1 -9 -4 -14q-8 -12 -8 -61q0 -11 1 -15l3 -15l2 -11q1 -6 7 -15q5 -7 6 -13q2 -5 11 -16.5t11 -11.5h1q3 0 13 -6t13 -10t4 -2q-2 4 3 4t5 -4q0 -3 23 -3q22 0 25 3q5 5 16 5q10 1 10 3q-1 1 0.5 1.5 t3.5 -0.5q3 0 3 1q-1 3 5 6t8 1q1 1 2 1q0 4 12 16.5t16 12.5l1 1q-3 3 6 12t13 7l1 1q-2 2 3 14q3 7 6 22q1 8 2 14.5t1.5 10t0.5 5.5q0 3 -2 5q-3 3 -3 10q0 10 -8 34q-2 7 -4 13.5t-2 10.5l-1 3q1 0 0 1l-4 4q-5 5 -1 8t-1 3q-6 0 -6 5q0 7 -18 13.5t-37 6.5 q-43 0 -52 -9q-6 -6 -9 -4t-2 -1q1 -2 -1 -4.5t-7 -4t-9 -0.5q-8 2 -9.5 9t5.5 12q8 6 11 4q3 -1 1 2q-3 6 12 9q8 2 11 5q2 2 1.5 3t-2.5 -1q-4 -2 -6 1t-7 -1q-6 -4 -3 0zM187 306q0 6 -7 -4q-4 -5 1 -1q1 1 4 3zM235 304l-8 2q-16 1 -21 -2q-4 -2 -7 0q-3 1 -1 -2 q2 -4 8 -1q3 2 16 2q12 0 13 1zM274 298q2 2 -2 2q-5 0 -10 -3q-3 -2 -1 -2q1 0 4 1q2 0 5 1q3 0 4 1zM285 298q2 3 1 3q-2 1 -6 -4q-5 -5 4 -5q3 1 3 2q-3 2 -2 4zM118 290q-3 5 -6 5q-1 0 2 -5t6 -5q1 0 -2 5zM176 293l-5 1q-7 0 -11 -6q-2 -2 1 -1q4 3 9 3q3 0 6 3z M293 287q0 7 -7 -4q-6 -8 1 -2l3 3q3 2 3 3zM316 247q-3 5 -6 5q-1 0 2 -5t6 -5q1 0 -2 5zM324 230q2 2 -1 4q-4 2 -7 -3q-4 -5 -8 -3q-3 1 -1 -2t6 -1q6 3 7 3q2 0 4 2zM331 209q-3 6 -9 -2q-4 -5 1 -1q2 1 4.5 1.5t3.5 -0.5v2zM331 194q0 5 -4 5q-6 0 -1 -5l4 -4q1 2 1 4z M69 173q3 3 -3 3q-8 0 -1 -4q3 -1 4 1zM61 156q0 8 -4 1q-1 -3 1 -4q1 -1 2 1q1 1 1 2zM67 146l-1 5l-1 -1q-4 -12 -1 -11q3 3 3 7zM330 147q-3 5 -3 -1q1 -3 2 -3q2 1 1 4zM326 126q-3 5 -6 5q-1 0 2 -5t6 -5q1 0 -2 5zM322 110q0 6 -7 -4q-3 -4 -2.5 -4.5t4.5 2.5q5 5 5 6 zM303 87q0 7 -7 -4q-6 -8 1 -2l3 3q3 2 3 3zM286 78q4 4 2 4t-5 -5t0 -7q1 1 2 1q-1 1 -0.5 3.5t1.5 3.5zM96 69q-2 2 -6.5 2t-6.5 -2l7 -2q6 0 6 2zM126 40q-2 3 -3 3t-3 -3t3 -3t3 3zM139 32q-1 2 -4 3q-8 0 -1 -4q4 -2 5 1zM221 33q-1 1 -3 2q-4 0 -8 -4q-5 -5 -8 -3 l-2 1l1 -1q7 -5 11 -1q0 4 4 4q3 0 5 2zM237 29q4 4 2 4q-3 0 -4 -3q-2 -4 -5 -2q-4 2 -5 -1q-2 -2 2 -2q6 0 10 4zM173 24q0 4 -6 4q-10 0 0 -5q6 -3 6 1zM185 26q2 4 0 3l-5 -3q-4 -3 -1 -3q5 0 6 3zM194 25l2 5l-5 -5q-4 -4 2 -9l1 1q-4 4 0 8zM279 575q7 8 18 6 q20 -4 20 -16q1 -8 -10 -11h-2q-6 -1 -13 -1q-2 0 -2 -2q0 -5 -6 -17q-17 -34 -19 -59q-2 -21 -5 -24q-4 -4 -9 0.5t-5 11.5q0 41 4 46q1 1 1.5 3t-0.5 3v1q0 6 11 29.5t17 29.5zM293 568q3 4 3 5l-8 -6q-5 -6 0 -6l3 1q-2 2 2 6zM273 536q4 4 2 4t-5 -4q-4 -5 0 -7h2 q-1 1 -0.5 3.5t1.5 3.5zM268 524q-4 7 -4 -2q1 -3 3 -3q3 1 1 5zM265 511q2 2 -4 4q-7 3 -2 -2q4 -4 6 -2z" />
<glyph unicode="&#xf3;" horiz-adv-x="329" d="M233 318q4 4 2 4q-1 0 -5 -4t0 -6h2q-2 2 1 6zM238 327q-1 2 -4 3q-11 0 -1 -4q3 -1 5 1zM250 340q3 3 4 5q-3 0 -9 -6q-5 -5 -2 -7t2 1q-2 4 5 7zM270 350q-1 1 -3 2q-9 0 -1 -3q2 -1 4 1zM250 358q14 6 22 6q8 -1 8 -12q0 -8 -1 -9.5t-7 -1.5q-8 0 -8 -3q-1 -1 -3 -2 q-4 0 -6 -6q-1 -6 -7 -4q-5 2 -7 -1q-1 -2 1 -2q4 1 2 -6q-2 -5 -7 -14q-7 -14 -13 -16l-5 -1q-3 4 -6 7q-6 6 -1 16q1 3 3 5t3 3.5t2 0.5l1 2v2q-1 6 5 12q5 4 8 12q2 6 16 12zM120 39q-2 2 -3 2t-3 -2q-3 -3 3 -3t3 3zM165 46q-4 4 -6 4t2 -4q5 -5 6 -5zM98 46q0 5 -3 1 q-1 -3 1 -4q1 1 2 3zM88 69q-2 -2 -9 3l-1 -1l2 -2q5 -5 7 -2q1 0 1 1l1 2zM188 74q4 4 2 4t-4 -3t-6 -1q-2 1 -2 0.5t2 -2.5q3 -5 7 -5q1 0 0.5 0.5l-1.5 1.5q-2 1 2 5zM82 83q0 6 -4 1q-1 -3 1 -4q1 -1 2 0.5t1 2.5zM201 85q0 1 -5 4t-7 0v-2q1 1 3.5 0.5t3.5 -1.5z M77 125q-2 2 -7 -3l-3 -4l4 2q6 4 6 5zM80 139q3 3 -3 3q-4 -1 -4 -3q3 -3 7 0zM107 146q-1 1 -3 2q-9 0 -1 -3q2 -1 4 1zM95 148q0 6 -4 1q-1 -3 1 -4q1 -1 2 0t1 3zM214 150q-5 5 -6 5l2 -5q4 -4 6 -4t-2 4zM219 156q0 4 -4 4q-5 0 -1 -4l4 -4q1 2 1 4zM212 166 q1 1 -0.5 1.5t-3.5 0.5q-8 0 -1 -3q3 -1 5 1zM182 166l2 3q-16 -4 -32 -4h-1q-1 1 -2.5 -2l-3.5 -7q-7 -18 -15 -7q-2 2 -6 0q-4 -3 -6 -1q-1 1 -6 -4q-3 -3 -3 -3.5t3 1.5q13 9 18 -8q4 -15 -2 -16q-4 1 -7 4q-7 9 -5 9q1 0 3 -1q1 -1 2 -0.5t0 2.5q-1 1 -2.5 1.5 t-2.5 -0.5q-2 -1 -4 2t-6 2.5t-10 -4t-8 -7.5q-4 -7 -4 -18q0 -20 14 -41q4 -7 0 -11q-2 -2 -2 -2.5t4 0.5q7 2 16 -5q11 -8 22 -7q11 2 11 3l1 1q2 2 4 4.5t4 4.5q11 13 13 18q4 8 6 8q3 0 3 4t7 16q7 13 9 21q0 2 5 11q3 5 1 8q-1 1 -1.5 4.5t-0.5 4.5q-2 7 -5 8 q-5 3 -3 5l-3 1h-2q-4 1 -5 2zM143 174q3 3 -3 3q-11 0 -1 -4q2 -1 4 1zM194 179q0 5 -7 -4q-2 -3 1 -1q6 4 6 5zM162 182q4 4 2 4t-4 -3q-1 -3 -9 -1q-5 1 -5 -1q9 -6 16 1zM145 187q15 8 20 6q2 -1 16 -3q18 -2 34 -18q11 -11 10 -24q-2 -29 -15 -48q-3 -5 -3 -8 q0 -5 -8.5 -18.5t-11.5 -13.5h-1q-1 -1 0 -3v-1q0 -6 -11.5 -17.5t-21.5 -16.5q-7 -3 -17 -3q-33 0 -60 36q-14 19 -12 27q0 2 2 1q3 -2 6 1l-4 1h-2q-5 -1 -6.5 0.5t-0.5 5.5q0 7 -3 13q-5 8 0 20q3 6 3 7q2 6 7 12t7 5q3 -2 3 1q0 2 5 4t11.5 2.5t11.5 -0.5q17 -5 21 1 q1 1 -2 0q-4 -2 -3.5 1.5t4.5 12.5q4 7 21 17z" />
<glyph unicode="&#x104;" horiz-adv-x="505" d="M169 528q5 1 13 1q5 -1 11 -25t6 -47q0 -22 3 -25q4 -4 6 -22q1 -8 5 -25q3 -11 7 -43q2 -11 6 -22q6 -15 7 -25q2 -16 7 -23q4 -8 0 -12q-3 -3 5 -5q3 -1 7 -1q31 -2 53 -20q7 -7 7 -8q0 -3 -9 -3t-12 2q-7 5 -12 5q-8 0 -17 3q-7 2 -8.5 -2.5t3.5 -13.5q4 -7 15.5 -36 t12.5 -36q2 -19 21 -56q6 -13 8 -22q8 -40 23 -42t15 -24q0 -8 -4 -13q-6 -8 -23 -6q-12 1 -15 -0.5t-9 -13.5q-7 -14 -7 -18q0 -5 5 -23q9 -35 30 -46q14 -7 48 -7q10 0 10 1v1q0 4 24.5 21t30.5 17q7 0 8 4q2 7 9 -1q3 -3 3 -7t-9.5 -15t-13.5 -11q-2 0 -17 -11 q-30 -25 -54 -25q-9 0 -19 -2h-5q-28 0 -53 23q-15 14 -23 38q-7 23 -11 29t0 13q4 8 4 18q0 11 7 23q6 12 19 12q3 0 5.5 0.5t4 1.5t0.5 2q-2 4 4 4q5 0 5 7t-3 5q-2 -1 -4 4q-4 8 -6 20q-1 9 -12 30l-5 15q-2 7 -13 30q-11 25 -13 31q-1 5 -4 8q-2 2 3 8l1 3q-2 -1 -5 2.5 t-7 12.5q-2 5 -6 13.5t-4 9.5l-3 9q-1 1 -1 2.5t-1 2.5q-2 2 -2 8q0 5 -20 4q-22 -2 -46 -2q-27 0 -28 -7q0 -1 -1.5 -6.5t-3.5 -12t-3 -12.5q-11 -48 -11 -53v-1q1 0 -1 -3t-5 -8q-12 -23 -12 -78q0 -32 -4 -40q-3 -6 -4 -3q0 1 -2 7q-1 5 -3 8t-4 2q-1 -1 -2.5 1t-1.5 5 q0 8 -7 19q-5 8 -5 18q0 15 12 50q9 25 11 35q14 63 23 72q5 5 -6 8l-6 1q-28 7 -15 25q12 17 26 4q6 -4 6 0q0 5 7 3q8 -3 2 3q-5 5 -1 21q5 15 7 27q9 50 10 53q5 17 7 38q3 38 11 70q4 19 3 24q-3 21 15 25zM172 451q-6 6 -8 6q-3 0 3 -6q5 -5 8 -5q2 0 -3 5zM178 432 q0 6 -5 8t-5 -1q0 -11 -2 -21q-3 -13 -5 -39q-7 -59 -19 -59q-4 1 -4 -1q1 -2 3 -4q3 -3 3.5 -13.5t-2.5 -13.5q-1 -4 -2 -7q-2 -8 -5 -13t-7 -4q-2 1 -2.5 0t0.5 -2q2 -2 20 -2h14h14q21 0 29 -2q9 -2 10 0q-1 1 1 2.5t4 1.5q4 0 3 3q-3 3 -7 1q-1 -1 -3.5 1.5t-4.5 7 t-3 10.5q-4 15 -8 46q-1 13 -5 28q-5 20 -9 46q-3 18 -3 27zM199 402q-5 6 -5 -2q0 -2 1 -3.5t3 -0.5q3 2 1 6zM242 231q1 1 -0.5 2t-4.5 1q-9 0 -1 -4q4 -2 6 1zM273 149q0 7 -5 1q-2 -4 1 -5q1 -1 2.5 0.5t1.5 3.5zM342 1q0 4 -9 -5q-4 -4 -3.5 -4.5t5.5 2.5q7 5 7 7z M287 -21q0 4 -9 -5l-4 -5l5 3q8 6 8 7zM281 -69q0 4 -5 4q-6 0 -1 -5l2 -2q6 -6 7.5 -6.5t4.5 3.5q1 1 0 1.5t-3 0.5q-5 0 -5 4zM295 -84q0 4 -11 -7l-8 -8l10 7q9 7 9 8zM328 -132q0 7 -5 1q-2 -4 1 -5q2 -1 3 0.5t1 3.5z" />
<glyph unicode="&#x105;" horiz-adv-x="384" d="M276 -62q5 5 3 5t-5 -3q-4 -4 -5 -3t-2 1t-1 -1q0 -6 7 -1q2 1 3 2zM296 -55q0 3 -6 -3q-3 -4 1 -1q5 3 5 4zM253 -55q0 3 -6 -3q-3 -4 1 -1q5 3 5 4zM243 -57q2 2 -2 2q-7 0 -1 -3q1 -1 3 1zM240 -47q0 3 -6 -2q-5 -2 -6 -1l-1 -1q1 -3 7 0q6 2 6 4zM233 -42q-1 1 -3 2 q-7 0 -1 -3q1 -1 4 1zM223 -35q0 3 -4 3q-3 0 -1 -3l4 -4q1 2 1 4zM221 -17q3 3 2 3q-1 2 -8 -6l-2 -4q4 4 6 2q-1 2 2 5zM212 1q0 7 -3 1q-1 -2 1 -4q1 1 2 3zM233 14q-1 1 -3 2q-7 0 -1 -3q1 -1 4 1zM148 20q4 4 2 4t-3 -2t-4 -1t-3 0q0 -2 3 -2.5t5 1.5zM138 23 q0 2 -7 -5l-5 -5l6 5zM251 23l1 4l-4 -4q-3 -4 0 -5h2q-2 2 1 5zM252 34q-2 2 -6 2h-3t0 -1q2 -2 6 -2h3t0 1zM108 33q0 3 -4 3q-3 0 -1 -3l4 -4q1 2 1 4zM181 48q-4 4 -5 4q-2 0 2 -4l4 -4zM191 76l-4 4q-2 0 2 -4l4 -4q2 0 -2 4zM202 104q0 3 -6 -3q-3 -4 1 -1q5 3 5 4z M195 112q1 1 -0.5 1.5t-3.5 0.5h-5l4 -2q3 -2 5 0zM185 122q-2 2 -6 2h-3t0 -1q2 -2 6 -2h3t0 1zM197 128q-3 -3 -11 4q-7 6 -11 2q-5 -6 1 -2q5 3 10 -3q6 -7 5 -8t0.5 -1.5t3.5 -0.5q5 -1 2 2t0 7zM187 151l-5 2q-6 0 -6 -3q0 -2 2 -2.5t5 0.5t4 3zM198 156q2 2 -1 3 q-1 -1 -2 -3q0 -6 -2 -8t-2 -4v-2q-3 -9 1 -11q3 -1 1 2q-1 1 -1 1.5t3 -0.5h4q-1 1 -0.5 3t1.5 3q2 3 -2 4q-5 2 -3 4t5 1q2 -1 2 -0.5t-2 2.5q-4 3 -2 5zM208 164l-2 2l-2 -2q-1 -1 0 -2t2 -1t2 1t0 2zM193 168q-2 4 -7 -2q-1 -2 -3 -3q1 1 3 2q1 1 3.5 1.5t3.5 -0.5v2z M193 177q0 7 -3 1q-1 -1 1 -3q1 -1 1.5 0t0.5 2zM190 188q2 2 6 0.5t9.5 -6t7.5 -9.5q5 -9 2 -26q-3 -25 -3 -26q-1 -8 -7 -23q-5 -13 -5 -21q0 -1 0.5 -5t0.5 -7q2 -21 4 -24q4 -6 4 -8q1 -2 4 -2t8.5 2.5t9.5 5.5q18 12 30 3q7 -6 4 -10q-3 -5 -1 -8q3 -5 -4.5 -11 t-18.5 -7l-12 -1l1 -15q1 -20 7 -27l1 -4l8 -6q1 -1 2 -1h2q1 -1 3 -1.5t4 -0.5q1 0 4.5 -0.5t6.5 -0.5q8 0 26 2q33 3 40 3q6 0 7 -4t-5 -8t-13 -4q-4 0 -10 -2q-16 -7 -44 -7q-17 0 -31 3q-15 3 -26.5 22t-11.5 40q0 5 2 13q3 8 -6 10q-8 2 -4 7v2q-3 -2 -6 4q-2 6 -1 7 q-1 1 -3 2q-3 0 -8 -9q-5 -8 -11 -10t-8 -6q-1 -4 -13 -6h-4q-23 0 -45 20q-15 14 -25.5 40.5t-10.5 47.5q0 8 1 12q7 24 29 27q10 2 12 4q3 2 11.5 -1t9.5 -7q2 -5 -3.5 -8.5t-13.5 -2.5q-9 1 -15 -6q-7 -9 -8 -15q0 -1 -0.5 -4t-0.5 -5q0 -23 7 -37q3 -8 2 -11q-2 -3 1 -2 q4 2 6 -3q5 -7 18 -17q15 -11 25 -10q10 2 14 -2v1q-3 4 3 10q7 7 7 9t5 9t3 9t3 0q3 0 4 1q-1 1 -3 13q0 3 -1 10.5t-2 10.5q-2 18 -2 34q0 20 2 26q1 3 5 19q1 3 5 5.5t6 1.5q2 -2 3 1zM193 140q1 3 4 3q5 0 1 -3q-1 0 -3 -1q-3 -2 -2 1z" />
<glyph unicode="&#x106;" horiz-adv-x="373" d="M122 353q7 4 19 4q9 0 14 -3q19 -13 19 -33v-2q-1 -9 -4 -13.5t-8 -3.5q-3 2 -3 8q0 19 -19 21q-9 1 -12 -5q-4 -6 -7 -4q-4 2 -6 -3q-3 -8 -12 -22q-6 -9 -21 -39q-10 -21 -10 -54q0 -49 11 -82q8 -24 8 -29q1 -5 2 -5q1 1 6 -4t3 -11q-1 -5 1 -5q3 1 17 -9 q13 -10 15 -8t4 -3t4 -5q4 0 14 -5t20 -9t31 -3q23 1 45 13q21 11 31 26q7 12 11 14l-1 1q-1 2 -1 7q0 3 2 11q3 13 14 3q5 -5 5 -10q0 -1 -0.5 -3.5l-1 -5t-1 -6.5t-1.5 -7q-1 -5 -7.5 -17t-8.5 -12t-4 -5q-2 -6 -25 -17q-27 -13 -67 -13q-28 0 -36 4q-6 4 -8 4l-18 8 q-18 8 -19 8q-3 0 -8 7t-8 7q-2 0 -9 9t-7 13q0 2 -6 6q-4 3 -4 5q0 3 -4 9q-5 10 -5 13q0 5 -6 19q-11 33 -11 81q0 36 7 49q4 8 4 10q0 4 5 14q4 11 10 7q3 -3 3.5 -2.5t-2.5 4.5q-4 7 3 14q2 2 12 19q13 27 20 27q5 0 4 4q-2 5 7 9zM97 301q-1 1 -3 2q-7 0 -1 -3 q2 -1 4 1zM62 232q2 2 -2 2q-8 0 -2 -3q2 -1 4 1zM86 91q1 1 -0.5 2t-2.5 1q-9 0 -1 -4q2 -1 4 1zM302 67q1 1 0 1h-3q-5 0 -8 -5q-1 -2 -3 -3q1 1 3 2q3 3 7 3q2 0 4 2zM107 59q0 7 -3 1q-1 -3 0 -4t2 0.5t1 2.5zM290 49q-1 1 -3 2q-4 0 -6 -2q-1 -2 2 -2q4 -1 7 2zM137 39 q-4 4 -5 4q-2 0 2 -4l5 -5zM284 40q-1 1 -3 2q-7 0 -1 -3q2 -1 4 1zM150 28q1 1 -0.5 2t-2.5 1q-9 0 -1 -4q2 -1 4 1zM252 22q-3 3 -6 3q-3 -1 -3 -2q2 -2 6 -2zM184 22q0 5 -7 -4q-2 -3 1 -1q6 4 6 5zM230 22q0 4 -8 -6l-5 -6l7 5zM190 549q17 3 19 -3q1 -2 -1.5 -2.5 t-6.5 0.5q-5 1 -7 0t-1 -3q0 -4 3 -7l1 1q-1 1 0 2t3.5 1.5t5.5 0.5q5 0 7 -0.5t1.5 -2t-2.5 -4.5q-3 -6 -12 -6q-6 0 -6 -2q1 -2 -1 -2l-2 1q-3 1 -3 0.5t1 -2.5q3 -4 -1 -9q-3 -4 -5 -13q-1 -5 -8 -27.5t-8 -23.5q-2 -2 -8 3t-7 9q-1 1 -1 6q0 20 12 46q6 14 6 16q0 3 2 3 t7 8t12 10zM188 538v4l-4 -2q-4 -3 0 -4q4 -2 4 2zM182 524q1 1 -0.5 2t-2.5 1q-7 0 -1 -3q3 -1 4 0zM175 495q0 3 -6 -4q-2 -3 1 -1q5 3 5 5z" />
<glyph unicode="&#x107;" horiz-adv-x="287" d="M147 289q-1 1 -3 2q-7 0 -1 -3q2 -1 4 1zM157 300l-1 3q-2 -1 -4 -3q-3 -4 1 -4t4 4zM173 322q4 4 2 4t-3 -2q-2 -4 -10 -2q-5 1 -6 0.5t0 -5.5q2 -8 3 -9h1q-1 1 0 4.5t3.5 5.5t3.5 1t6 3zM183 333l-2 2q-1 0 -3 -2q1 -1 3 -2q4 0 2 2zM173 340q3 3 15 3q14 0 18 -4 t1 -11t-8 -7q-16 0 -31 -22q-10 -17 -12 -26q-2 -11 -5 -13q-8 -4 -16 6q-3 3 -3 9q0 24 22 48q7 7 7 10t6 1h5q-2 2 1 6zM157 20q0 5 -3 1q-1 -3 1 -4q1 1 2 3zM141 21q-1 1 -3 2q-7 0 -1 -3q2 -1 4 1zM100 29q-2 2 -7 2l-3 -1q2 -2 7 -2zM111 33q6 2 0 2q-2 0 -4 -1.5 t-2 -3t2 -2.5q3 -2 2 1q-1 2 2 4zM198 45l-2 2q-1 0 -3 -2q-1 -1 0 -2t3 -1q1 0 2 1t0 2zM204 49q1 1 -0.5 2t-2.5 1q-7 0 -1 -3q3 -1 4 0zM76 70q-6 6 -7 6q-2 0 4 -6l6 -6q3 0 -3 6zM73 101q0 5 -3 1q-2 -3 -6 -1q-2 1 -1 -1q3 -3 6.5 -2.5t3.5 3.5zM73 112q0 5 -3 1 q-1 -3 1 -4q1 1 2 3zM78 121q1 1 -0.5 2t-2.5 1q-7 0 -1 -3q3 -1 4 0zM119 184q0 4 -6 -4q-2 -3 1 -1q5 3 5 5zM125 187q-4 4 -5 4q-2 0 2 -4t5 -4q2 0 -2 4zM134 206q10 4 16 -3q5 -5 4 -20q-2 -17 -3 -19q-2 -5 -9.5 -9t-10.5 -1t-3 7t3 4t3 2q-1 6 0 8t5 1l3 -1l-3 3 q-9 6 -10 1q0 -1 1 -3q2 -2 -2 -2q-3 0 -11 -8q-7 -7 -10 -7t-3 -2q1 -7 -7 -15q-16 -16 -16 -47v-4q2 -47 45 -57q4 -1 5.5 -2t0.5 -3q-2 -3 2 -1t17 4q2 0 7 1q14 2 14 3q-1 2 3 5t6 1q1 -1 1.5 0t-0.5 2q-1 4 3 4q4 1 4 3q-2 3 6 13t8 12q0 5 7 11t12 5q16 -2 -1 -28 q-9 -14 -9 -16q0 -3 -7 -8.5t-9 -4.5l-1 -1v-1q0 -4 -9 -11t-19 -12q-8 -3 -22 -3q-25 0 -39 6q-9 4 -19 12t-10 12t-3 4q-4 0 -9.5 15.5t-6.5 27.5q-2 16 2 24q1 2 1.5 4t1.5 4.5t1 3.5q5 21 26 51q19 27 44 35z" />
<glyph unicode="&#x118;" horiz-adv-x="421" d="M45 428q5 7 7 8t9 -1q5 -2 13 -6t24 -4q13 0 19 3q8 3 14 1q2 -1 16 -1q32 0 57 5q14 2 17 2q11 0 40 -10q16 -6 24 -17q6 -8 6 -9t-4 -5q-6 -4 -19 5q-15 11 -42 11q-12 0 -19 -1q-22 -2 -44 -2t-22 -2t-21 -2q-17 0 -19 -2t2 -17q2 -7 -2 -29q-4 -24 -4 -25 q0 -32 8 -69q4 -20 3 -24q-1 -5 2 -7t17 -3q21 -2 21 -4q0 -1 17 -1q32 0 40 2q4 1 6 -2q2 -4 9 0q22 11 39 11h1q1 -1 1.5 0.5t0.5 3.5q0 4 5 6q5 1 11.5 -3.5t5.5 -8.5t-12.5 -14t-15.5 -10q-7 0 -27 -5q-16 -4 -51 -4q-18 0 -52 2q-20 1 -23 -2q-1 -1 -1 -2t2 0q5 3 8 -9 q1 -8 2 -18q2 -36 7 -82q1 -4 4 -25q2 -11 -1 -14q5 -3 11 -4q13 0 29 -2q39 -6 89 -6q42 0 57 7q12 5 21 5q12 0 19 -7q6 -6 -14 -16q-4 -1 -8 -3q-13 -6 -47 -8q-5 0 -10 -0.5t-8 -1.5h-3q-3 -1 5 -6q12 -6 17 -6q7 0 7 -16q0 -15 -5 -20t-15 0q-7 3 -8 10t4 14l1 2l-3 -1 t-12 -1h-1q-5 0 -15.5 -7.5t-10.5 -11.5q0 -2 -6 -14q-9 -17 -10 -26v-3q0 -22 12 -36q8 -8 5 -10h1q2 1 7.5 -1t10 -5t3.5 -4q-2 -2 29 -2q29 0 29 2q0 4 5 4q3 0 29 6q22 5 31 1q6 -2 7.5 -6t-1.5 -8t-10 -5q-53 -11 -58 -14q-4 -3 -38 -3h-13q-12 0 -24 4q-11 5 -24 14 t-13 13v1q2 4 0 4q-11 -2 -11 4q0 5 -3 13q-3 7 -3 32q0 22 14 47q18 30 20 31q3 3 3 4t-15 1h-25q-43 0 -55 -2q-11 -3 -19 5t-5 10q2 2 2 17q0 17 -3 41q-7 54 -7 90q0 13 4 13q5 0 7 2q2 1 -1 1q-2 1 -4 0q-5 -1 -6.5 1t-1.5 12q-2 63 -9 83q-2 5 -7 44q-2 21 -4 23 t-2 20q0 15 -3 21q-2 4 -2 8t-4 4q-2 0 -10 6q-7 6 -1 16zM204 420q1 1 -0.5 1.5t-3.5 0.5q-6 0 -1 -3q4 -2 5 1zM134 416q-4 4 -6 4t2 -4q5 -5 6 -5zM92 414q1 1 -0.5 1.5t-3.5 0.5q-6 0 -1 -3q4 -2 5 1zM92 377q-1 2 -4 3q-8 0 -1 -4q4 -2 5 1zM87 315q-5 5 -6 5l2 -5 q4 -4 7 -4q1 0 0 1zM92 302q-1 2 -3 2t-3 -2q-3 -3 3 -3t3 3zM259 224q0 6 -4 1q-1 -3 1 -4q3 -1 3 3zM116 221q-4 4 -6 4t2 -4q5 -5 6 -5zM253 217q0 2 -3.5 3.5t-5.5 -0.5q-2 -4 -9 -2q-6 2 -9 -1q0 -1 3.5 -1.5t8.5 -0.5t7 1h2q2 1 3 1h3zM148 212q-4 4 -6 4q-1 0 0 -1 l3 -3q5 -5 6 -5q2 0 -3 5zM167 212q-9 0 -12 2l-1 -1q6 -6 19 -5q1 2 2 2q-2 2 -8 2zM104 209q0 6 -4 1q-1 -3 1 -4q1 -1 2 0t1 3zM190 208q0 4 -5 4q-4 0 0 -4l4 -4q1 2 1 4zM202 209q-4 4 -6 4q-1 0 0 -1l3 -3q5 -5 6 -5q2 0 -3 5zM108 114q5 5 3 5q-3 0 -4 -3 q-2 -4 -6 -2q-3 2 -3 1q0 -3 3.5 -3.5t6.5 2.5zM114 73q1 1 -0.5 1.5t-3.5 0.5q-6 0 -1 -3q4 -2 5 1zM116 54q4 4 2 4t-4 -3q-1 -3 -6 -1q-4 2 0 -3q5 -5 7 -5t0 2q-1 1 -0.5 3t1.5 3zM125 37q5 6 -6 0q-5 -3 -1 -3q6 0 7 3zM145 29q0 4 -8 -4q-3 -4 1 -1q7 4 7 5zM195 29 q0 4 -8 -4q-3 -4 -2.5 -4t4.5 3q6 3 6 5zM168 24q-1 2 -4 3q-8 0 -1 -4q4 -2 5 1zM225 25q-1 3 -3 3t-3 -3q-3 -3 3 -3t3 3zM281 23q-5 5 -6 5q-2 0 3 -5t6 -5q2 0 -3 5zM234 11q4 4 3 4q-3 0 -4 -3q-2 -3 -6 -1q-3 1 -3 0q0 -3 3.5 -3t6.5 3zM249 14q0 4 -8 -4 q-3 -4 -2.5 -4t4.5 3q6 3 6 5zM256 5q-4 4 -6 4q-1 0 0 -1l3 -3q5 -5 6 -5q2 0 -3 5zM238 -2q0 3 -4 3t-7 -3q-8 -8 -6 -11q1 -1 3 0q3 2 2 3t0 3.5t4 4.5t5 1zM250 -3q-1 1 -3 2l-5 -1l3 -2q4 -2 5 1zM279 -9q-1 1 -3 2l-5 -1l3 -2q4 -2 5 1zM205 -47q0 9 -5 2q-1 -3 -6 -1 q-3 1 -1 -1q4 -3 8 -3.5t4 3.5zM200 -66q-1 2 -3 2t-3 -2q-3 -3 3 -3t3 3zM200 -85q3 4 1 3l-6 -3q-5 -3 -1 -3t6 3zM206 -89q-1 2 -6 -2q-1 -3 -6 -1q-1 -1 -2 -1q3 -1 -1 -7v-1l2 2q2 1 3 2zM209 -98q1 1 -2 1q-4 0 -9 -5q-4 -4 -3.5 -4t5.5 3q2 1 5 3zM224 -126 q-5 5 -6 5l2 -5q5 -5 6 -5zM332 -132q0 1 -7 1q-5 -1 -5 -3q2 -1 7 -0.5t5 2.5zM314 -135q0 4 -10 -6l-6 -6l8 5zM249 -141q4 4 2 4q-3 0 -4 -3t-5 -1t-4 0q0 -3 4 -3t7 3zM296 -141q4 4 2 4t-4 -3t-6 -1q-3 1 -3 0q0 -3 4 -3t7 3zM267 -144q4 4 3 4q0 1 -8 -4q-5 -3 -3 -5 q3 0 8 5z" />
<glyph unicode="&#x119;" horiz-adv-x="366" d="M288 -77q0 6 -4 1q-2 -2 1 -4q1 -1 2 0.5t1 2.5zM302 -70q0 4 -7 -3q-4 -4 1 -1zM199 -52q-1 1 -3 1q-5 0 -7 -2h6q3 0 4 1zM185 -41q-1 -1 -6 2l-2 1q0 -1 3 -3q7 -5 7 -3q-1 2 -2 3zM183 -26q-2 2 -3 2t-3 -2q1 -1 3 -2q3 1 3 2zM184 -15q0 3 -7 3l-7 -1q1 -1 4 -1 q2 0 6 -2t4 1zM183 0q-1 2 -6 2t-6 -2l4 -2h2q6 0 6 2zM175 9q-4 4 -5 4q-2 0 2 -4t6 -4q1 0 0 1zM190 20q0 5 -3 1q-3 -3 0 -4q1 -1 2 0t1 3zM173 20q3 3 -3 3q-7 0 -1 -3q3 -1 4 0zM161 24l-7 1q-8 0 -9 -1l9 -1q5 0 7 1zM132 26q-1 1 -3 2q-7 0 -1 -3q2 -1 4 1zM208 28 q-2 -2 -7 1l-1 -1q3 -3 6.5 -3t3.5 3q0 2 -2 0zM126 37q-2 2 -3 2t-3 -2q1 -1 3 -2q3 1 3 2zM234 41q0 2 -2 3q-3 -9 0 -9q2 2 2 6zM253 45l-4 1q-5 0 -6 -1l3 -1q5 0 7 1zM106 51q0 4 -7 -3l1 -1zM275 57q-3 5 -8 -1q-3 -3 -3 -3.5t3 1.5q6 4 8 2v1zM283 70q3 3 2 3l-7 -5 q-4 -4 0 -4l3 1q-1 1 2 5zM85 70q3 3 -3 3q-7 0 -1 -3q3 -1 4 0zM74 69q-4 4 -5 4q-2 0 2 -4q3 -3 5 -3q1 0 -2 3zM79 79q-2 2 -3 2t-3 -2q1 -1 3 -2q3 1 3 2zM73 88q0 3 -4 3t-1 -3l4 -4q1 2 1 4zM72 100q-2 2 -3 2l-2 -2q-2 -2 2 -2q3 1 3 2zM69 115q-2 -2 -7 1l-1 -1 q3 -3 6.5 -3t3.5 3q0 2 -2 0zM136 126q1 1 -0.5 1.5t-3.5 0.5q-7 0 -1 -3q3 -1 5 1zM166 127q0 2 -3 3t-5 -1t-5 -1q-1 1 -2 0.5t0 -2.5q3 -3 7 0q1 1 3 1.5t3 -0.5q2 -2 2 0zM73 128q-2 2 -7 2l-3 -1q2 -2 7 -2zM178 138q0 6 -11 0q-6 -4 -2 -4q3 0 6 3q1 2 4 1q3 -2 3 0z M77 143q0 1 -4 3h-1q2 -2 -3 -6l1 -1q7 3 7 4zM79 152q-1 1 -3 2q-8 0 -2 -3q3 -1 5 1zM90 167q0 3 -8 -5l-6 -6l7 5zM213 196q0 3 -6 -3q-3 -3 -3 -3.5t4 1.5q5 3 5 5zM123 199q-1 1 -3 2q-8 0 -2 -3q3 -1 5 1zM169 228q0 1 -2 1q-3 0 -9 -6l-6 -6l8 5q8 6 9 6zM204 227 q4 4 2 4q-3 0 -4 -2q-2 -4 -5 -2q-3 1 -3 0q0 -2 4 -2t6 2zM169 242q1 0 5 0.5t5 0.5q17 0 31 -9q8 -5 9.5 -8.5t1.5 -15.5q0 -17 -2 -25t-10 -23t-13 -20t-5 -9q0 -3 -9.5 -8t-12.5 -3q-2 1 -2 -2v-1q0 -6 -27 -6q-21 0 -30 4q-10 3 -10 6t6.5 9.5t8.5 5.5q4 -2 18 -2 q3 0 8 0.5t6 0.5q21 5 26 14q2 4 7 4q6 0 7 3q1 1 0.5 1.5t-2.5 -0.5l-1 1q1 2 3 5q4 8 4 10q0 4 3 4t4 28q-2 9 -3 9q-3 0 -3 1v1q0 1 -4 1q-13 0 -35 -8q-18 -8 -26 -17l-2 -2q-1 0 -2 -1q-7 -4 -8 -3v-5q1 -3 0 -4t-4 0q-5 2 -5 0t-8 -14.5t-10 -12.5l1 3q1 2 -1 1 q-4 -2 -3 -4t-3 -14q-3 -9 -3 -22q0 -28 11 -39q6 -5 1 -9q-4 -4 -1 -6t3 0q1 4 2 5q5 -6 25 -18t27 -14q16 -2 23 -2q15 0 15 2v1q-3 3 2 6l4 2l-1 -2q-2 -2 -1.5 -2.5t2.5 0.5q1 1 1.5 2.5t-0.5 2.5q-3 4 6 6q13 3 24 -1q5 -3 18 3q12 5 17 3l2 2q-1 2 1 2q4 0 4 4t6 8 t6 12q0 12 15 9q6 -1 6.5 -4t-2.5 -16q-1 -2 -1 -4q-2 -6 -16.5 -19t-19.5 -13q-3 0 -7 -4t-17 -7q-14 -4 -14 -5q0 -3 -5 -1h-1q-6 0 -13 -7.5t-10 -16.5q-2 -8 -2 -13q0 -36 44 -50q18 -5 28 -5q13 0 21 5t11 5l4 2l-1 1q-2 -1 -2 0q-1 1 3 5q5 7 9 5q2 -1 2 0t-2 2 q-8 6 3 8h6q16 -3 8 -17q-4 -8 -16 -18.5t-21 -14.5q-10 -4 -22 -4q-16 0 -44 7q-28 8 -28 14q0 2 4 6q6 6 9 4l1 -1l-1 2q-3 3 -9 -2q-11 -8 -11 -2q0 4 -4 8q-5 5 -10 13t-4 9q2 2 -3 6q-4 3 -3 6q1 2 3 20l1 16h-12q-13 0 -32 9t-19 14v1q1 3 -2 1h-1q-6 0 -20 15t-18 26 q-7 25 -7 35v3q1 2 2 7t1 6q2 9 9 23t11 14q3 -1 3 0q-1 4 3 10t7 5q3 -2 2 1q0 4 22 22.5t36 28.5q12 8 19 8z" />
<glyph unicode="&#x141;" horiz-adv-x="484" d="M157 497q18 3 18 0q0 -1 0.5 -4.5t1.5 -9t1 -9.5q2 -20 2 -61q-1 -63 -1 -126v-24.5t2 -13t2 -5t4 -2.5q13 -7 16 -11q1 -1 35 -19q33 -18 35 -19q5 -3 7 -2q0 2 10 -5q9 -6 15 -6q2 0 14 -7q10 -6 26 -14q8 -4 13 -7.5t4 -4.5q-2 -4 4 -4q4 0 14 -8q8 -8 3 -11 q-4 -2 -10.5 -1.5t-12.5 3t-6 5.5t-7 5q-9 2 -15 7q-21 16 -60 25q-10 2 -27 12t-17 13l-7 3h-2q-15 1 -16 5q0 1 1 2t-0.5 1.5t-4.5 0.5q-7 0 -5 3q1 2 -1 2.5t-5 -0.5l-4 1l1 2t0.5 2.5t-2.5 -0.5q-1 -1 -2 -2.5t0 -2.5t3 -22q2 -15 5 -22q2 -5 4 -48q4 -73 5 -77 q0 -1 1.5 0l4.5 3q6 4 11 2q7 -2 29 3q32 6 50 6q14 0 30 -3q35 -5 41 -6q17 -2 40.5 -9.5t27.5 -11.5q5 -5 5 -13t-11 -8q-10 0 -24 6q-17 7 -20 8q-19 8 -89 8q-41 0 -53 -4q-15 -4 -25 -6q-13 -2 -22 -8q-11 -7 -17 -5q-5 2 -11.5 11t-3.5 11q2 1 2 54q0 55 -2 61 q-1 5 -5 49l-2 42l-24 10q-23 11 -23 14t-6 2q-8 -2 -10 2q-2 3 -14 3q-9 2 -9 5l-4 -3q-5 -5 -2 -12q3 -5 -2 -11q-6 -6 -11 -2q-6 4 -4 7t-2 3q-3 0 -3 12q0 22 5 25q7 5 29 5q11 0 13 -2q2 -3 6 -1q5 3 11 -3q8 -6 24.5 -12.5t22.5 -6.5q3 0 3 1q-1 0 -1 1q-5 8 -8 110 q0 16 -0.5 33.5t-1.5 26.5v9v25q0 16 1.5 19.5t11.5 5.5zM167 473q0 6 -8 -4q-4 -4 -3.5 -4.5t5.5 2.5q6 5 6 6zM167 460q0 5 -8 -5q-4 -4 -3.5 -4t5.5 3q6 4 6 6zM163 443q5 5 3 5t-4 -4q-2 -3 -6 -1t-4 0q0 -3 4 -3t7 3zM167 383q-4 -2 -10 2q-4 2 -4 1q7 -10 15 -8 q2 0 2 2q0 4 -3 3zM166 343q0 4 -5 4t-1 -4t5 -4t1 4zM164 334q-3 5 -7 5l3 -5t6 -5q1 0 -2 5zM84 278q-3 3 -8 3l-4 -1q3 -3 9 -3zM99 275q-1 2 -4 3q-8 0 -1 -4q4 -2 5 1zM121 257q-3 5 -7 5l3 -5t7 -5zM161 258q-2 -2 -9 2q-4 3 -4.5 2.5t3.5 -4.5t8.5 -4t4.5 4q0 2 -3 0 zM142 250q-1 2 -4 2q-2 0 -3 -2q-1 -3 3 -3q4 1 4 3zM195 231q0 7 -9 -4q-4 -4 -3.5 -4t5.5 3q2 1 3.5 2t2.5 2zM175 221q5 5 3 5q-4 0 -5 -3q-2 -4 -6 -2q-3 1 -3 0q0 -3 4 -3t7 3zM202 225q0 5 -8 -5l1 -1q7 5 7 6zM174 185q0 8 -4 1q-1 -3 1 -4q3 -2 3 3zM272 185 q0 6 -8 -4q-4 -4 -3.5 -4.5t4.5 2.5q7 5 7 6zM311 165q-3 5 -7 5l3 -5t6 -5q1 0 -2 5zM183 158q0 6 -8 -4q-5 -5 1 -1q2 1 3.5 2t2.5 2zM181 139q1 1 -0.5 2t-3.5 1q-9 0 -2 -4q4 -2 6 1zM183 132q0 6 -8 -4q-4 -4 -3.5 -4.5t4.5 2.5q7 5 7 6zM187 59q-3 5 -7 5l3 -5t6 -5 q1 0 -2 5zM188 48q-2 3 -3 3q-3 0 -4 -3q-1 -1 0.5 -2t3.5 -1q5 0 3 3zM287 46h-5l-4 -1q2 -2 -3 -7l-1 -2q1 0 5 3zM314 42q-3 5 -6 5l3 -5t6 -5zM272 43q0 5 -8 -5q-5 -5 1 -1q7 5 7 6zM229 32q5 5 3 5q-4 0 -5 -3q-2 -3 -6 -1q-3 1 -3 0q0 -3 4 -3.5t7 2.5zM335 34 q1 1 0 1.5t-4 0.5q-5 0 -5 -0.5t4 -2.5t5 1zM386 30q-1 2 -4 3q-9 0 -2 -4q4 -2 6 1zM189 26l5 4q-2 0 -9 -4q-7 -5 -2 -7q3 -1 3 0q-4 2 3 7zM212 28q-2 3 -4 3t-3 -3t3 -3q4 1 4 3zM425 20q-4 -2 -8 1q-5 3 -8 -1v-2q4 2 8 -1q5 -3 8 1v2z" />
<glyph unicode="&#x142;" horiz-adv-x="308" d="M176 26q-2 -2 -8 2q-4 2 -3.5 1.5l3.5 -3.5q6 -7 9 -2q1 1 1 2q0 2 -2 0zM180 32q-3 3 -7 3l-3 -1q3 -3 7 -3zM165 100q-5 5 -6 5l2 -5q4 -4 6 -4t-2 4zM165 124q0 5 -7 -4q-4 -5 1 -1q6 4 6 5zM163 159q-1 2 -3 2t-3 -2q-3 -3 3 -3t3 3zM159 171q-1 2 -3 2t-3 -2 q-3 -3 3 -3t3 3zM150 215q-6 6 -8 6t4 -6t8 -6t-4 6zM148 238q0 5 -7 -4q-6 -8 1 -2q6 4 6 6zM229 238q-2 -2 -7 2q-4 2 -4 1.5t3 -3.5q6 -7 9 -2l1 2q0 2 -2 0zM206 250q-3 3 -7 3q-3 -1 -3 -2q2 -2 7 -2zM190 257q1 1 -0.5 1.5t-3.5 0.5q-4 0 -6 -2q-1 -2 2 -2zM145 255 q0 2 -5 5q-4 3 -7 -1v-1q3 2 7 -2zM136 295q3 3 -3 3q-8 0 -1 -4q3 -1 4 1zM130 310q1 1 2 1v2l-2 1q-4 0 -4 -1q0 -3 -3 -3q-5 1 -4.5 -0.5t5.5 -5.5q4 -3 3 0t3 6zM77 315q0 4 -4 4q-5 0 -1 -4l5 -5v5zM91 318q0 6 -4 1q-1 -3 1 -4q3 -1 3 3zM131 324q0 6 -4 1q-1 -3 1 -4 q3 -1 3 3zM75 330q0 1 -1.5 1t-3.5 -1t-3 -2q-1 -2 1 -2l2 1q5 2 5 3zM113 400q-1 1 -3 2l-5 -1l3 -2q4 -2 5 1zM107 429q0 6 -4 1q-1 -3 1 -4q1 -1 2 0t1 3zM98 461l-5 5l2 -5q4 -4 6 -4q1 0 0 1zM98 488q0 5 -7 -4q-6 -7 2 -1q5 3 5 5zM80 530q-2 -2 -8 2l-1 -1 q2 -2 4.5 -3.5t4.5 -0.5t2 3t-2 0zM64 541q7 2 11 0q2 -1 7 -1q3 0 8 -14q6 -15 9 -20q4 -6 4 -21q0 -14 6 -30q5 -14 7 -27q1 -7 4 -19t3 -19q0 -10 3 -13q2 -2 0 -6t2 -8q2 -2 8 -29q8 -39 13 -39q4 0 17.5 -10.5t13.5 -13.5q0 -4 5 -4q6 0 24 -11t21 -11t18.5 -11.5 t15.5 -13.5t-5 -2q-12 0 -42.5 12.5t-43.5 22.5q-20 15 -26 15q3 -3 5 -15q2 -11 4 -13t-1 -7q-3 -4 2 -10q4 -4 4 -16q0 -8 3 -11q2 -2 2 -15q0 -4 2 -15.5t2 -16.5q5 -42 7 -68q3 -38 7 -47q4 -8 1 -16.5t-10 -8.5q-9 0 -11.5 8.5t-6.5 45.5q-6 64 -10 83q-2 9 -4 26 q-2 22 -3 25q-7 23 -12 59q-4 25 1 30q3 3 2.5 3.5t-3.5 -1.5q-5 -4 -17 1q-10 5 -10 9t-3 2t-18 4q-13 5 -13 3q2 -3 -4 -9t-11 2q-1 0 -1 1q-6 8 -4 12t-2 8q-5 5 -2 11.5t10 8.5q9 3 25 -4t20 -11t10 -6q5 -3 -1 -10l-2 -3q2 1 4.5 1.5t3.5 -0.5l1 1q-2 4 3 9q4 4 2 4 q-3 0 -10 33q-5 16 -6 23l-3 15q0 1 -1.5 7l-2.5 10q-5 16 -6 27q-2 13 -4 18q0 1 -2 3l-1 2q-4 23 -8 23q-3 0 -5 17q-2 16 -7 21q-5 6 -4.5 12t5.5 8z" />
<glyph unicode="&#x143;" horiz-adv-x="444" d="M65 409q3 2 7 5q3 3 4 3t7 -8q5 -8 2 -13q-4 -7 10 -29q14 -24 13 -25q-2 -2 2 -2q5 0 9 -6q1 -1 11 -14q7 -9 7 -13q0 -5 5 -7q4 -2 16.5 -23t12.5 -26v-1q-1 -3 2 -3q5 0 7 -4q1 -1 3 -5.5t4 -6.5q5 -7 16 -25q12 -20 14 -22q16 -22 16 -27q-3 0 3 -6q20 -18 22 -35 q1 -6 3 -6q2 1 12 -8.5t10 -12.5q0 -7 35 -37q19 -16 23 -13t4 29q0 51 -9 87q-8 32 -11 52q-1 14 -8 36q-1 3 -3 14.5t-4 20.5q-2 12 -4 46q-1 14 -1 29q0 10 6 11h4q9 0 10 -31q1 -37 13 -91q10 -50 12 -57q5 -15 8 -25q2 -6 4.5 -15.5t2.5 -10.5l2 -6q1 0 2 -4t2 -9.5 t1 -8.5q0 -6 2 -6q5 0 5 -40q0 -14 -4.5 -32.5t-8.5 -22.5q-1 -1 -16 1q-11 2 -12 4q0 1 1 3v2h-1q-5 0 -16.5 8t-11.5 11v1v2q-3 -2 -11.5 4.5t-6.5 9.5q0 2 -1 3q-6 -3 -19 13q-9 11 -13 13t-4 4q-1 5 -6.5 13.5t-7.5 8.5t-2 4q0 3 -6 9q-5 5 -3 8q1 1 1 2t-2 0 q-4 -2 -12 11q-8 14 -11 17q-16 22 -12 28h-3q-4 -2 -6 4q-7 18 -21 38q-33 47 -33 58v1q1 3 -2 1q-4 -2 -11.5 9.5t-4.5 14.5h-2q-2 -1 -11 9q-5 8 -4 8h2q1 1 -3 3q-8 4 -4 6q1 1 -1 1h-2q-6 -2 -6 -21q0 -11 3 -17q5 -8 9 -57q2 -21 5 -29t5 -24q1 -4 3 -13t2 -10 q1 -3 2 -11.5t1 -10.5q3 -19 5 -27q4 -13 2 -18q-2 -6 4 -14q5 -6 7 -13q2 -6 6 -10q5 -5 5.5 -12.5t-4.5 -10.5t-15 2q-14 7 -17 23l-3 11q-2 11 -3 18q-1 5 -2.5 15t-2.5 13q0 3 -2 13t-3 16t-3.5 16.5t-2.5 13.5q-8 46 -11 71q-1 6 -4 18q-4 14 -8 54q0 2 -1 9t-2 10 q-3 18 -4 21q-2 12 -6 16q-3 4 2 9q6 6 6 9q0 4 10 11zM98 350q-3 3 -9 3l-3 -1q3 -3 8 -3zM119 71q1 5 0 5.5t-5 -4.5q-4 -4 0 -6t4 -1q0 3 1 6zM296 62q1 1 -5 3q-4 2 -4.5 1.5t2.5 -2.5q5 -4 7 -2zM219 488q-2 9 -1.5 13t2 4.5t6.5 0.5q10 0 11 -3q5 -8 5 -68 q0 -40 -1 -65q0 -8 2 -20q2 -9 0 -10.5t-13 2.5q-8 3 -9 14q-1 14 -1 65q0 57 -1 67z" />
<glyph unicode="&#x144;" horiz-adv-x="274" d="M166 326q4 4 2 4t-3 -3t-5 -1t-4 0q0 -3 4 -3t6 3zM177 351q10 6 17 2q14 -8 2 -12q-8 -2 -11 -2q-2 0 -2 -4q0 -6 -8 -12q-9 -7 -9 -13t-6 -9q-8 -4 -6 -8q2 -3 -2 -12q-3 -8 -5 -21q-2 -24 -13 -23q-3 0 -7 6q-3 5 -3 21q0 28 5 30q4 2 4 5q0 4 7 11q6 6 4 9q-2 2 2 2 q3 0 7 9t10 8q3 -1 4 0t0 3q-2 4 10 10zM100 60q0 5 -7 -4q-4 -5 1 -1q6 4 6 5zM86 63q-4 4 -5 4q-2 0 2 -4q5 -5 6 -5q2 0 -3 5zM68 109q-2 3 -3 3t-3 -3q1 -1 3 -2q3 1 3 2zM120 155q15 16 26 3q4 -4 9 -4q4 0 11 -8.5t5 -10.5q-1 -1 -0.5 -1.5t2.5 0.5h1q5 0 18.5 -20 t19.5 -38q4 -13 -2 -19q-7 -6 -15 -2q-9 4 -9 10q0 2 -0.5 7t-0.5 6q0 5 -6.5 17t-11.5 17q-24 26 -32 26q-5 0 -5 -7q0 -8 -4 -12t0 -8q3 -3 0 -12q-3 -6 -5 -31q-2 -21 -4 -26q-3 -6 -3 -7q-3 -19 -9 -18q-8 3 -36 51q-16 28 -16 43q0 9 6 15q10 10 17.5 4.5t6.5 -22.5 q0 -17 4 -24t4 -14q0 -5 4 -5q3 0 3 11q0 13 2 16t4 18q3 30 16 45z" />
<glyph unicode="&#x15a;" horiz-adv-x="337" d="M175 397h2q10 0 28 -7t27 -16q14 -12 14 -27q0 -6 -4 -9q-5 -4 -9 2q-3 4 -3 8q2 9 -12 18q-8 4 -5 7l-21 2q-21 0 -21 -3q1 -1 -0.5 -1.5t-3.5 -1.5q-6 -2 -6 -6q0 -5 -3 -3q-4 2 -4 -3t-3 -3q-1 1 -3 -1t-3 -5q-2 -8 -5 -8q-4 0 -9 -14q-6 -15 -6 -43q0 -23 5 -35 q4 -11 1 -14q-2 -2 -2 -2.5t2 0.5q5 0 23 -16.5t18 -20.5q0 -3 7 -8t5 -10q-1 -2 1 -1q3 1 11 -4.5t8 -8.5q0 -2 7 -4q8 -2 10 -8t6 -6t11 -7.5t7 -11.5t4 -2q4 1 9 -6.5t3 -10.5q-1 -2 2 -2h1q4 0 9 -9t5 -17v-3q-2 -10 -11 -23t-14 -13h-1q-3 0 -3 -1v-1q0 -5 -33.5 -17 t-52.5 -14q-7 -1 -21 -1q-46 0 -64 11q-6 4 -10 4t-10 11q-4 7 -4 18q0 14 7 14q4 0 4 -5q0 -4 7 -3q6 1 6 -5t-1 -8.5t-3 -1.5q-2 0 -1 -2q3 -3 8 -1h4q-2 -2 6 -6t19 -6q10 -2 25 2q5 1 13.5 2.5t9.5 1.5q9 1 44 14.5t37 16.5t6 2q2 0 3.5 5.5t1 12t-2.5 8.5q-3 3 -3 7 t-7 8t-7 9t-10 9q-9 4 -7 7q1 3 -2 3q-6 0 -20 12q-11 9 -12 11.5t3 6.5q5 4 4.5 4.5t-5.5 -2.5q-8 -4 -13.5 -2t-4.5 9q2 7 -1 7q-2 0 -6.5 1.5t-8 4.5t-2.5 4q1 2 -1 1h-2q-7 0 -18.5 16t-21.5 40q-2 3 -2 24q0 38 4 42t2 4q-1 0 -1 2q0 7 12.5 27t23.5 29q6 6 16 14 q7 6 18 8zM145 201q-1 2 -4 3q-8 0 -1 -4q4 -2 5 1zM262 94q-4 4 -6 4t2 -4q5 -5 7 -5t-3 5zM248 52l2 5q-2 0 -4 -3q-2 -4 -6 -2q-3 2 -3 1q0 -3 4 -3.5t7 2.5zM240 41q0 3 -7 -4q-3 -4 1 -1q6 3 6 5zM202 34q-1 2 -3 2t-3 -2q-3 -3 3 -3t3 3zM185 27q5 4 4 6q-2 0 -6 -4 q-5 -5 -8 -3t-3 0q0 -7 10 -1q2 1 3 2zM85 28q-4 -4 -10 0q-5 3 -1 -1q7 -4 16 -2q-1 1 -1 4q0 2 -4 -1zM161 19q0 8 -12 -1q-1 -1 -3 -2l-8 -8l9 7q9 7 12 4q2 -1 2 0zM137 18q-1 1 -3 2l-5 -1l3 -2q4 -2 5 1zM258 599q12 5 16 0t-2 -18q-8 -20 -8 -78q0 -15 2 -31 q1 -6 -0.5 -7.5t-7.5 -0.5q-7 0 -16 7q-6 5 -6 21q0 12 3 30q0 2 3 34q3 38 16 43zM255 508q0 4 -8 -4q-3 -4 -2.5 -4.5t4.5 2.5q6 3 6 6z" />
</font>
</defs>
</svg>
